<?xml version="1.0" encoding="UTF-8" standalone="no"?> <svg xmlns="http://www.w3.org/2000/svg" xmlns:xlink="http://www.w3.org/1999/xlink"><metadata> Created by FontForge 20170731 at Fri Feb 17 22:51:21 2012 By Aleksey,,, Copyright (c) 2011, Sorkin Type Co (www.sorkintype.com) with Reserved Font Name "Krona". </metadata><defs><font id="KronaOne-Regular"><glyph glyph-name=".notdef"></glyph><glyph glyph-name=".null"></glyph><glyph glyph-name="nonmarkingreturn"></glyph><glyph glyph-name="uni0001"></glyph><glyph glyph-name="uni0002"></glyph><glyph glyph-name="uni0003"></glyph><glyph glyph-name="uni0004"></glyph><glyph glyph-name="uni0005"></glyph><glyph glyph-name="uni0006"></glyph><glyph glyph-name="uni0007"></glyph><glyph glyph-name="uni0008"></glyph><glyph glyph-name="uni0009" unicode="&#9;"></glyph><glyph glyph-name="uni0010"></glyph><glyph glyph-name="uni0011"></glyph><glyph glyph-name="uni0012"></glyph><glyph glyph-name="uni0013"></glyph><glyph glyph-name="uni0014"></glyph><glyph glyph-name="uni0015"></glyph><glyph glyph-name="uni0016"></glyph><glyph glyph-name="uni0017"></glyph><glyph glyph-name="uni0018"></glyph><glyph glyph-name="uni0019"></glyph><glyph glyph-name="space" unicode=" "></glyph><glyph glyph-name="exclam" unicode="!" d="M270 1563h317v-994h-317v994zM191 173q0 40 16.5 75.5t47.5 62t75 41.5t99 15t99 -15t74.5 -41.5t47 -62t16.5 -75.5t-16.5 -75.5t-47 -61.5t-74.5 -41.5t-99 -15.5t-99 15.5t-75 41.5t-47.5 61.5t-16.5 75.5z"></glyph><glyph glyph-name="quotedbl" unicode="&quot;" d="M300 1659h257v-702h-257v702zM802 1659h257v-702h-257v702z"></glyph><glyph glyph-name="numbersign" unicode="#" d="M430 387h-273v222h321l80 377h-401v222h448l78 365h257l-78 -365h473l78 365h257l-78 -365h298v-222h-345l-80 -377h425v-222h-473l-82 -387h-257l82 387h-473l-82 -387h-257zM1208 609l80 377h-473l-80 -377h473z"></glyph><glyph glyph-name="dollar" unicode="$" d="M295 465q72 -41 145 -74.5t150.5 -59t160 -43t174.5 -24.5v394q-51 -6 -98 -10t-91 -4q-105 0 -201.5 27t-171 81t-118.5 135t-44 189q0 92 38.5 181.5t125 161t224.5 118.5t336 54v303h237v-309q167 -15 320.5 -55t281.5 -97l-139 -256q-100 43 -216 76t-247 48v-318 q48 5 96 8.5t94 3.5q138 0 244.5 -31t178.5 -88.5t109 -139t37 -182.5q0 -125 -53.5 -225.5t-152 -173.5t-239 -117t-314.5 -56v-304h-237v303q-232 14 -435.5 74.5t-363.5 152.5zM533 1106q0 -70 63 -114.5t192 -44.5q29 0 64 2.5t73 6.5v354q-113 -4 -188.5 -24 t-120.5 -49t-64 -63.5t-19 -67.5zM1162 262q114 7 195 29t132.5 55.5t75 76.5t23.5 91q0 85 -71 134.5t-219 49.5q-32 0 -66.5 -2.5t-69.5 -6.5v-427z"></glyph><glyph glyph-name="percent" unicode="%" d="M469 785q-88 0 -162.5 29t-128.5 81.5t-84 127t-30 166.5q0 91 30 166t84 127.5t128.5 81.5t162.5 29t162.5 -29t128.5 -81.5t84 -127.5t30 -166q0 -92 -30 -166.5t-84 -127t-128.5 -81.5t-162.5 -29zM1501 1574h307l-1255 -1574h-307zM469 989q38 0 71.5 14.5t58.5 41 t39.5 63.5t14.5 81t-14.5 81t-39.5 63.5t-58.5 41t-71.5 14.5t-71.5 -14.5t-58.5 -41t-39.5 -63.5t-14.5 -81t14.5 -81t39.5 -63.5t58.5 -41t71.5 -14.5zM1170 383q0 91 30 166t84 127.5t128.5 81.5t162.5 29t162.5 -29t128.5 -81.5t84 -127.5t30 -166q0 -92 -30 -166.5 t-84 -127t-128.5 -81.5t-162.5 -29t-162.5 29t-128.5 81.5t-84 127t-30 166.5zM1391 383q0 -44 14.5 -81t39.5 -63.5t58.5 -41t71.5 -14.5t71.5 14.5t58.5 41t39.5 63.5t14.5 81t-14.5 81t-39.5 63.5t-58.5 41t-71.5 14.5t-71.5 -14.5t-58.5 -41t-39.5 -63.5t-14.5 -81z"></glyph><glyph glyph-name="ampersand" unicode="&amp;" d="M167 498q0 49 10 97t34.5 100t65 109.5t102.5 126.5q-35 57 -50.5 111.5t-15.5 111.5q0 94 38 173t107 136.5t165 89.5t212 32q124 0 223.5 -36t169.5 -97t107.5 -142.5t37.5 -171.5q0 -55 -14.5 -110.5t-43.5 -115t-72 -124.5t-100 -139l237 -177q77 91 129.5 207.5 t81.5 252.5h-101v248h660v-248h-296q-35 -172 -96 -328.5t-160 -284.5q46 -26 87.5 -40.5t80.5 -20.5t76.5 -5t77.5 7l90 -259q-86 -17 -161.5 -22t-150 6.5t-153 42.5t-169.5 88q-104 -65 -232.5 -101t-289.5 -36q-171 0 -300 41t-215 111.5t-129 165t-43 201.5zM929 810 q72 95 102.5 168.5t30.5 139.5q0 55 -18.5 94.5t-49.5 64.5t-72.5 37t-87.5 12q-50 0 -89 -12.5t-66 -34.5t-41 -52t-14 -65q0 -26 9.5 -55.5t35 -65.5t71 -79t116.5 -97zM478 520q0 -56 23.5 -107t72 -90t122 -62t173.5 -23q74 0 140 13t126 38l-488 371q-23 17 -44 34 t-41 34q-40 -50 -62 -100.5t-22 -107.5z"></glyph><glyph glyph-name="quotesingle" unicode="'" d="M300 1659h257v-702h-257v702z"></glyph><glyph glyph-name="parenleft" unicode="(" d="M255 786q0 173 50 334t139 305t212.5 268.5t269.5 226.5l137 -211q-123 -97 -223 -201.5t-170.5 -219.5t-109 -240t-38.5 -262t29.5 -260t89.5 -235t151 -214.5t214 -199.5l-137 -211q-146 102 -260.5 224.5t-193 264t-119.5 300t-41 331.5z"></glyph><glyph glyph-name="parenright" unicode=")" d="M935.016 786q0 173 -49.9971 334t-138.991 305q-88.9951 144 -212.487 268.5t-269.483 226.5l-136.992 -211q122.993 -97 222.986 -201.5q99.9941 -104.5 170.49 -219.5q70.4951 -115 108.993 -240t38.498 -262t-29.499 -260q-29.498 -123 -89.4941 -235t-150.99 -214.5 q-90.9951 -102.5 -213.987 -199.5l136.991 -211q145.991 102 260.484 224.5t192.988 264t119.492 300q40.998 158.5 40.998 331.5z"></glyph><glyph glyph-name="asterisk" unicode="*" d="M284 1047l213 293l-344 113l70 217l345 -113l-2 363h231l-2 -363l346 112l71 -217l-344 -112l210 -293l-184 -134l-212 294l-214 -293z"></glyph><glyph glyph-name="plus" unicode="+" d="M479 684h-342v222h342v339h232v-339h343v-222h-343v-357h-232v357z"></glyph><glyph glyph-name="comma" unicode="," d="M191 174q0 40 17 75t47.5 61.5t74 41.5t97.5 15q58 0 106.5 -18.5t83.5 -53.5t54.5 -85.5t19.5 -113.5q0 -142 -97.5 -272.5t-283.5 -231.5l-120 170q49 26 86 51.5t65 51.5t48.5 54t36.5 60q-53 0 -96.5 15.5t-74.5 41.5t-47.5 61.5t-16.5 76.5z"></glyph><glyph glyph-name="hyphen" unicode="-" d="M137 906h917v-222h-917v222z"></glyph><glyph glyph-name="period" unicode="." d="M191 173q0 40 16.5 75.5t47.5 62t75 41.5t99 15t99 -15t74.5 -41.5t47 -62t16.5 -75.5t-16.5 -75.5t-47 -61.5t-74.5 -41.5t-99 -15.5t-99 15.5t-75 41.5t-47.5 61.5t-16.5 75.5z"></glyph><glyph glyph-name="slash" unicode="/" d="M1087 1770h287l-929 -2124h-287z"></glyph><glyph glyph-name="zero" unicode="0" d="M129 785q0 189 57 339t162 254.5t255 159.5t336 55t336 -55t255 -159.5t162 -254.5t57 -339t-57 -339t-162 -254t-255 -159t-336 -55t-336 55t-255 159t-162 254t-57 339zM446 786q0 -128 34.5 -226t98.5 -164.5t155 -101t205 -34.5t205 34.5t155 101t98.5 164.5 t34.5 226q0 127 -34.5 224.5t-98.5 164.5t-155 101.5t-205 34.5t-205 -34.5t-155 -101.5t-98.5 -164.5t-34.5 -224.5z"></glyph><glyph glyph-name="one" unicode="1" d="M163 278h355v973q-70 -16 -134.5 -42t-117.5 -63l-156 223q86 54 175.5 91.5t181 60t184 32.5t184.5 10l-1 -2h1v-1283h339v-278h-1011v278z"></glyph><glyph glyph-name="two" unicode="2" d="M220 272l551 378q124 85 203 148t124 112.5t62 89.5t17 80q0 46 -19 86t-59.5 70t-104 47t-151.5 17q-128 0 -255 -36t-259 -115l-146 240q147 91 318.5 142t360.5 51q165 0 286.5 -39.5t201 -107.5t118.5 -158t39 -191q0 -78 -26 -149t-91 -147t-175.5 -163.5 t-278.5 -198.5l-228 -150h856v-278h-1344v272z"></glyph><glyph glyph-name="three" unicode="3" d="M277 372q118 -58 252.5 -84.5t262.5 -26.5q114 0 197 18.5t137 50.5t80 76t26 95q0 69 -47 123.5t-142.5 82t-241 21.5t-342.5 -57l1 234l584 380h-827v278h1251v-272l-514 -326q141 0 252 -36t187 -99t116 -149t40 -185q0 -117 -51.5 -212.5t-149.5 -163t-239.5 -104.5 t-320.5 -37q-190 0 -351 40.5t-306 112.5z"></glyph><glyph glyph-name="four" unicode="4" d="M191 612l914 951h317v-951h337v-278h-337v-334h-317v334h-916zM1105 612v550l-534 -550h534z"></glyph><glyph glyph-name="five" unicode="5" d="M265 372q57 -29 123.5 -49.5t137 -34.5t142 -20.5t139.5 -6.5q120 0 207.5 17.5t144 49.5t84 76.5t27.5 98.5q0 55 -28.5 101t-85 79t-142 51.5t-199.5 18.5q-51 0 -115 -4.5t-136 -14.5t-150 -27.5t-158 -42.5v899h1199v-281h-906v-303q75 17 157 28.5t183 11.5 q165 0 295 -36t219.5 -103t136.5 -161.5t47 -211.5q0 -121 -50.5 -218.5t-149 -166.5t-242 -106t-329.5 -37q-96 0 -190.5 10.5t-183.5 30t-170.5 48t-152.5 64.5z"></glyph><glyph glyph-name="six" unicode="6" d="M194 738q0 213 63.5 371.5t174 263.5t260.5 157t324 52q73 0 148.5 -7.5t148.5 -23.5t141.5 -41.5t127.5 -60.5l-141 -240q-44 25 -93.5 42.5t-102.5 28t-107 15.5t-106 5q-116 0 -209.5 -30t-161.5 -85t-108.5 -131.5t-50.5 -169.5q52 41 115 71t133.5 49.5t145 29 t149.5 9.5q146 0 265.5 -35t204.5 -101t131.5 -160.5t46.5 -214.5q0 -118 -46.5 -219t-137.5 -175.5t-226 -117t-313 -42.5q-173 0 -316 44t-245 137t-158.5 236.5t-56.5 342.5zM509 591q24 -164 144 -247.5t315 -83.5q98 0 174 20t128 55.5t79 84.5t27 107q0 49 -21 92 t-65.5 74.5t-114.5 50t-169 18.5q-83 0 -157 -13t-137 -36t-114.5 -54t-88.5 -68z"></glyph><glyph glyph-name="seven" unicode="7" d="M1017 1283h-909v280h1389l-815 -1563h-360z"></glyph><glyph glyph-name="eight" unicode="8" d="M157 476q0 70 19 130t52 109.5t76.5 88t93.5 67.5q-69 68 -100 135.5t-31 129.5q0 99 46.5 181t133.5 141.5t211 92t279 32.5t279 -32.5t211 -92t133.5 -141.5t46.5 -181q0 -62 -31 -129.5t-100 -135.5q49 -29 93 -67.5t77 -88t52 -109.5t19 -130q0 -117 -54.5 -209.5 t-156 -156t-246 -97.5t-323.5 -34t-323.5 34t-246 97.5t-156 156t-54.5 209.5zM584 1122q0 -37 18.5 -69.5t60 -57t109 -38.5t165.5 -14t165.5 14t109 38.5t60 57t18.5 69.5t-18.5 69.5t-60 57t-109 38.5t-165.5 14t-165.5 -14t-109 -38.5t-60 -57t-18.5 -69.5zM474 491 q0 -51 29.5 -93.5t87.5 -72.5t145 -47t201 -17t201 17t145 47t87.5 72.5t29.5 93.5t-28.5 93.5t-86 72.5t-144.5 47t-204 17t-204 -17t-144.5 -47t-86 -72.5t-28.5 -93.5z"></glyph><glyph glyph-name="nine" unicode="9" d="M415 361q43 -25 96 -44t109.5 -31.5t114 -19t109.5 -6.5q116 0 209.5 30t161.5 85t108.5 131.5t50.5 169.5q-52 -41 -115 -71t-133.5 -49.5t-145 -29t-149.5 -9.5q-146 0 -265.5 35t-204.5 101t-131.5 160.5t-46.5 214.5q0 118 46.5 219t137.5 175.5t226 117t313 42.5 q173 0 316 -44t245 -137t158.5 -236.5t56.5 -342.5q0 -213 -63.5 -371.5t-174 -263.5t-260.5 -157t-324 -52q-73 0 -151.5 9t-155.5 27t-148.5 45t-130.5 62zM500 1033q0 -49 21 -92t65.5 -74.5t114.5 -50t169 -18.5q83 0 157 13t137 36t114.5 54t88.5 68 q-24 164 -144 247.5t-315 83.5q-98 0 -174 -20t-128 -55.5t-79 -84.5t-27 -107z"></glyph><glyph glyph-name="colon" unicode=":" d="M191 173q0 40 16.5 75.5t47.5 62t75 41.5t99 15t99 -15t74.5 -41.5t47 -62t16.5 -75.5t-16.5 -75.5t-47 -61.5t-74.5 -41.5t-99 -15.5t-99 15.5t-75 41.5t-47.5 61.5t-16.5 75.5zM191 1008q0 40 16.5 75.5t47.5 62t75 41.5t99 15t99 -15t74.5 -41.5t47 -62t16.5 -75.5 t-16.5 -75.5t-47 -61.5t-74.5 -41.5t-99 -15.5t-99 15.5t-75 41.5t-47.5 61.5t-16.5 75.5z"></glyph><glyph glyph-name="semicolon" unicode=";" d="M195 1007q0 40 16.5 75.5t47.5 62t75 41.5t99 15t99 -15t74.5 -41.5t47 -62t16.5 -75.5t-16.5 -75.5t-47 -61.5t-74.5 -41.5t-99 -15.5t-99 15.5t-75 41.5t-47.5 61.5t-16.5 75.5zM191 174q0 40 17 75t47.5 61.5t74 41.5t97.5 15q58 0 106.5 -18.5t83.5 -53.5t54.5 -85.5 t19.5 -113.5q0 -142 -97.5 -272.5t-283.5 -231.5l-120 170q49 26 86 51.5t65 51.5t48.5 54t36.5 60q-53 0 -96.5 15.5t-74.5 41.5t-47.5 61.5t-16.5 76.5z"></glyph><glyph glyph-name="less" unicode="&lt;" d="M1253.02 369l-627.962 415l627.962 417l-136.991 215l-928.943 -631l928.943 -631z"></glyph><glyph glyph-name="equal" unicode="=" d="M137 1100h917v-222h-917v222zM137 687h917v-222h-917v222z"></glyph><glyph glyph-name="greater" unicode="&gt;" d="M276 369l628 415l-628 417l137 215l929 -631l-929 -631z"></glyph><glyph glyph-name="question" unicode="?" d="M669 961q169 8 283 25.5t182.5 43t97.5 58t29 71.5q0 37 -24 66t-69 48.5t-109.5 29.5t-145.5 10q-87 0 -176 -11t-171 -30t-154 -45t-126 -55l-146 240q51 30 128 62.5t174.5 59.5t212.5 44t243 17q159 0 285.5 -29.5t214 -85t134 -136.5t46.5 -184q0 -78 -30.5 -144 t-102.5 -119t-192 -92t-299 -63v-173h-285v392zM601 173q0 40 16.5 75.5t47.5 62t75 41.5t99 15t99 -15t74.5 -41.5t47 -62t16.5 -75.5t-16.5 -75.5t-47 -61.5t-74.5 -41.5t-99 -15.5t-99 15.5t-75 41.5t-47.5 61.5t-16.5 75.5z"></glyph><glyph glyph-name="at" unicode="@" d="M196 508q-2 149 37.5 289.5t119 264t197.5 226.5t272.5 176.5t345 114.5t414.5 41q212 0 390 -36.5t320 -102t249 -156t178.5 -198t107.5 -228.5t36 -247q0 -151 -48 -275.5t-129.5 -213t-189.5 -137t-228 -48.5q-119 0 -216.5 49.5t-157.5 149.5q-43 -27 -95 -55.5 t-115 -51t-137.5 -37t-161.5 -14.5q-143 0 -257 40.5t-193.5 111t-121.5 165.5t-42 205q0 86 25.5 164t71.5 144t110.5 119.5t141 91t163.5 58t179 20.5q76 0 145.5 -12.5t129 -32t106.5 -42t77 -42.5l28 108h296l-104 -548q-17 -88 -13 -150.5t25 -103t57.5 -59.5t84.5 -19 q67 0 122.5 33t95.5 90.5t62.5 135t22.5 165.5q0 89 -24.5 179t-76.5 172t-132 153t-190.5 123.5t-252.5 82.5t-318 30q-178 0 -331.5 -31t-280.5 -88t-225.5 -137t-166 -178t-102.5 -211t-35 -235q0 -169 66 -312.5t189 -248t299 -163.5t396 -59q171 0 305.5 33t238.5 82 l122 -188q-143 -66 -320 -106t-378 -40q-180 0 -337 34t-288 96.5t-234 151.5t-174.5 199t-110 238.5t-40.5 269.5zM1087 566q0 -61 24 -113.5t69.5 -91.5t112.5 -61t154 -22q122 0 216.5 43t159.5 119l60 306q-41 32 -91.5 56.5t-105 41.5t-110 26t-106.5 9 q-84 0 -154.5 -23.5t-121.5 -65.5t-79 -99.5t-28 -124.5z"></glyph><glyph glyph-name="A" unicode="A" d="M755 1563h336l756 -1563h-333l-125 263h-913l-121 -263h-334zM1264 524l-338 710l-329 -710h667z"></glyph><glyph glyph-name="B" unicode="B" d="M222 1563h835q153 0 266.5 -32.5t188.5 -89.5t111.5 -135.5t36.5 -169.5q0 -149 -94 -261q108 -64 161 -166t53 -232q0 -109 -36.5 -197t-111 -150.5t-188 -96t-267.5 -33.5h-955v1563zM1179 963q41 0 80 -3q67 64 67 146q0 85 -66.5 131.5t-194.5 46.5h-526v-321h640z M1185 276q128 0 194.5 55t66.5 155t-66.5 156t-194.5 56h-646v-422h646z"></glyph><glyph glyph-name="C" unicode="C" d="M127 791q0 167 63 311.5t182.5 251t292 167.5t390.5 61q191 0 350.5 -38.5t296.5 -117.5l-146 -240q-41 27 -94.5 48t-114 35.5t-125 22.5t-127.5 8q-152 0 -271 -37.5t-200.5 -105t-124 -161t-42.5 -205.5q0 -116 44 -213t127.5 -167.5t204 -110t272.5 -39.5 q69 0 137 10t131.5 27.5t122.5 42t110 53.5l146 -240q-128 -82 -296 -128.5t-357 -46.5q-241 0 -423 62.5t-304 172t-183.5 258t-61.5 319.5z"></glyph><glyph glyph-name="D" unicode="D" d="M222 1563h573q251 0 436 -54t306.5 -154.5t181 -244t59.5 -322.5q0 -170 -59 -314.5t-180 -250t-306 -165t-436 -59.5l-575 1v1563zM873 274q142 0 249 36.5t178.5 103.5t107.5 162t36 212q0 115 -36 207.5t-107.5 157t-178.5 99.5t-249 35h-334v-1013h334z"></glyph><glyph glyph-name="E" unicode="E" d="M222 1563h1331v-278h-1014v-312h898v-261h-898v-435h1035v-277h-1352v1563z"></glyph><glyph glyph-name="F" unicode="F" d="M222 1563h1398v-278h-1081v-409h918v-261h-918v-615h-317v1563z"></glyph><glyph glyph-name="G" unicode="G" d="M115 796q0 165 62 308.5t181 249.5t292.5 167t397.5 61q81 0 162.5 -8.5t161 -26.5t155 -45.5t143.5 -65.5l-146 -240q-41 24 -93 43.5t-111.5 33t-123 20.5t-127.5 7q-148 0 -264 -37.5t-196 -105t-122 -161.5t-42 -206q0 -116 44 -213t125 -167t196 -109.5t257 -39.5 q113 0 207 25.5t164 72.5t114 113.5t58 149.5h-546v261h831v-1l1 1q25 -120 15.5 -233.5t-52 -214t-116.5 -184.5t-177 -144.5t-234 -94t-287 -33.5q-218 0 -390.5 64t-292.5 175t-183.5 260t-63.5 318z"></glyph><glyph glyph-name="H" unicode="H" d="M221 1563h317v-408h972v408h318v-1563h-318v884h-972v-884h-317v1563z"></glyph><glyph glyph-name="I" unicode="I" d="M182 1563h319v-1563h-319v1563z"></glyph><glyph glyph-name="J" unicode="J" d="M-79 -259q69 42 118.5 88t81.5 101.5t47 124t15 155.5v1353h317v-1296q0 -104 -9 -189.5t-29.5 -157t-55 -131.5t-85 -114t-119 -104t-158.5 -101z"></glyph><glyph glyph-name="K" unicode="K" d="M222 1563h317v-809l825 809h406l-770 -746l770 -817h-422l-576 596l-233 -225v-371h-317v1563z"></glyph><glyph glyph-name="L" unicode="L" d="M222 1563h317v-1285h909v-278h-1226v1563z"></glyph><glyph glyph-name="M" unicode="M" d="M223 1563h317l568 -570l568 570h317v-1563h-317v1124l-568 -547l-568 547v-1124h-317v1563z"></glyph><glyph glyph-name="N" unicode="N" d="M220 1563h317l974 -510v510h317v-1563h-317v717l-974 507v-1224h-317v1563z"></glyph><glyph glyph-name="O" unicode="O" d="M130 786q0 177 65 324t182.5 252.5t282 163.5t364.5 58q199 0 364 -58t282.5 -163.5t182.5 -252.5t65 -324q0 -178 -65 -326.5t-182.5 -255.5t-282.5 -166.5t-364 -59.5q-200 0 -364.5 59.5t-282 166.5t-182.5 255.5t-65 326.5zM447 786q0 -121 43.5 -218t121 -165.5 t183 -105.5t229.5 -37t229.5 37t182.5 105.5t121 165.5t44 218t-44 217t-121 162.5t-182.5 101.5t-229.5 35t-229.5 -35t-183 -101.5t-121 -162.5t-43.5 -217z"></glyph><glyph glyph-name="P" unicode="P" d="M222 1563h824q180 0 312 -39t219 -112.5t129.5 -179.5t42.5 -239q0 -125 -42 -231t-128.5 -183.5t-218.5 -121t-312 -43.5l-509 1v-415h-317v1563zM1054 689q90 0 157.5 21.5t113 61t68 96t22.5 125.5q0 139 -90.5 216.5t-270.5 77.5h-515v-598h515z"></glyph><glyph glyph-name="Q" unicode="Q" d="M130 786q0 177 65 324t182.5 252.5t282 163.5t364.5 58q199 0 364 -58t282.5 -163.5t182.5 -252.5t65 -324q0 -158 -51.5 -292.5t-145.5 -238.5l281 -255h-402l-97 88q-102 -54 -222 -82t-257 -28q-200 0 -364.5 59.5t-282 166.5t-182.5 255.5t-65 326.5zM447 786 q0 -121 43.5 -218t121 -165.5t183 -105.5t229.5 -37q133 0 243 42l-448 406h402l272 -247q51 65 79.5 146.5t28.5 178.5q0 121 -44 217t-121 162.5t-182.5 101.5t-229.5 35t-229.5 -35t-183 -101.5t-121 -162.5t-43.5 -217z"></glyph><glyph glyph-name="R" unicode="R" d="M222 1563h795q180 0 312 -37.5t219 -108.5t129.5 -173t42.5 -231q0 -87 -21 -165.5t-64.5 -144.5t-109.5 -117.5t-155 -85.5l340 -500h-388l-294 444h-9l-480 1v-445h-317v1563zM1025 719q90 0 157.5 21t113 59t68 92.5t22.5 121.5q0 131 -90 202.5t-271 71.5h-486v-568 h486z"></glyph><glyph glyph-name="S" unicode="S" d="M295 465q85 -48 172.5 -86.5t181.5 -65t197.5 -40.5t220.5 -14q141 0 240 18.5t161.5 51t91 77.5t28.5 98q0 85 -71 134.5t-219 49.5q-65 0 -137 -8.5t-145.5 -18.5t-145 -18.5t-134.5 -8.5q-105 0 -201.5 27t-171 81t-118.5 135t-44 189q0 64 17.5 127t56 120.5 t99.5 107t147.5 85.5t200 56.5t258.5 20.5q105 0 211 -11.5t206.5 -32.5t193.5 -50.5t173 -65.5l-139 -256q-66 29 -142 53.5t-159 42.5t-171.5 28.5t-180.5 10.5q-131 0 -215.5 -19t-134.5 -48.5t-69.5 -66t-19.5 -72.5q0 -70 63 -114.5t192 -44.5q52 0 119.5 7.5t142 16.5 t152 16.5t150.5 7.5q138 0 244.5 -31t178.5 -88.5t109 -139t37 -182.5q0 -135 -62.5 -240.5t-178 -178t-278.5 -110t-363 -37.5q-132 0 -258 16.5t-241.5 47t-220 73t-193.5 93.5z"></glyph><glyph glyph-name="T" unicode="T" d="M693 1285h-577v278h1471v-278h-577v-1285h-317v1285z"></glyph><glyph glyph-name="U" unicode="U" d="M163 1563h317v-861q0 -106 29 -188.5t86.5 -139.5t142.5 -86.5t198 -29.5q112 0 197.5 29.5t143 86.5t86.5 139.5t29 188.5v861h317v-899q0 -154 -52 -280t-151 -216t-242.5 -139t-327.5 -49t-327.5 49t-242.5 139t-151 216t-52 280v899z"></glyph><glyph glyph-name="V" unicode="V" d="M13 1563h351l491 -1192l491 1192h351l-685 -1563h-314z"></glyph><glyph glyph-name="W" unicode="W" d="M20 1563h346l424 -1009l98 -244l77 244l156 368l-281 641h326l115 -305l107 305h326l-281 -641l159 -376l96 -236l74 240l426 1013h346l-690 -1563h-314l-139 310l-113 301l-113 -301l-141 -310h-314z"></glyph><glyph glyph-name="X" unicode="X" d="M666 794l-601 769h388l415 -538l417 538h382l-612 -766l633 -797h-389l-445 562l-455 -562h-383z"></glyph><glyph glyph-name="Y" unicode="Y" d="M701 387l-683 1176h359l481 -889l475 889h359l-674 -1174v-389h-317v387z"></glyph><glyph glyph-name="Z" unicode="Z" d="M941 1110l150 183h-939v270h1529l-875 -1099l-156 -194h982v-270h-1557z"></glyph><glyph glyph-name="bracketleft" unicode="[" d="M250 1918h533v-213h-276v-1838h276v-213h-533v2264z"></glyph><glyph glyph-name="backslash" unicode="\" d="M446.066 1770h-286.982l928.943 -2124h286.982z"></glyph><glyph glyph-name="bracketright" unicode="]" d="M599.016 1918h-532.968v-213h275.983v-1838h-275.983v-213h532.968v2264z"></glyph><glyph glyph-name="asciicircum" unicode="^" d="M849 1416l622 -949l-221 -146l-401 617l-401 -617l-221 146z"></glyph><glyph glyph-name="underscore" unicode="_" d="M1689 -177v-222h-1709v222h1709z"></glyph><glyph glyph-name="grave" unicode="`" d="M126 1620l111 229l686 -321l-99 -207z"></glyph><glyph glyph-name="a" unicode="a" d="M129 372q0 85 37 155t111 120.5t184.5 78t257.5 27.5q109 0 229.5 -16t248.5 -49q-5 56 -34 103.5t-80.5 82t-124 53.5t-164.5 19q-50 0 -110 -6t-124 -18t-126.5 -30t-116.5 -43l-90 243q67 24 143.5 44t156.5 34.5t160 22.5t155 8q331 0 492 -169t161 -518v-514h-296 v111q-46 -27 -100.5 -51t-118.5 -42t-137.5 -28.5t-155.5 -10.5q-138 0 -242.5 30t-174.5 83t-105.5 124.5t-35.5 155.5zM441 382q0 -29 15 -55.5t48 -47t84.5 -33t124.5 -12.5q78 0 151 14t136 37t114 53t85 62v52q-68 19 -134.5 32t-127 20.5t-114 10.5t-93.5 3 q-83 0 -138 -11t-89 -29.5t-48 -43.5t-14 -52z"></glyph><glyph glyph-name="b" unicode="b" d="M177 1659h296v-590q39 27 92 51t114 42t126 28.5t130 10.5q150 0 275.5 -44t215.5 -124t140.5 -191.5t50.5 -246.5q0 -141 -53 -254.5t-146.5 -194t-222 -124t-278.5 -43.5q-64 0 -126.5 8t-120 22t-108 33.5t-89.5 42.5v-85h-296v1659zM473 371q45 -36 95 -61t102 -41 t105 -23.5t103 -7.5q102 0 181.5 27.5t134 75.5t83.5 113t29 141q0 71 -28.5 134t-82 110.5t-129 75t-169.5 27.5q-60 0 -120 -11.5t-115.5 -32.5t-104 -51t-84.5 -67v-409z"></glyph><glyph glyph-name="c" unicode="c" d="M114 587q0 130 47.5 242.5t139 195t224 129.5t302.5 47q74 0 149 -9t144.5 -25.5t130.5 -39t106 -49.5l-137 -223q-97 45 -183.5 66t-175.5 21q-102 0 -183 -26.5t-137.5 -74t-86 -112t-29.5 -140.5t31.5 -140.5t89 -111t139 -73t181.5 -26.5q110 0 207.5 31t181.5 83 l137 -223q-53 -32 -115 -59.5t-132.5 -47.5t-148 -31.5t-160.5 -11.5q-169 0 -303 46t-227 127.5t-142.5 192.5t-49.5 242z"></glyph><glyph glyph-name="d" unicode="d" d="M94 585q0 141 53 254.5t146.5 194t222 124t278.5 43.5q64 0 126.5 -8t120 -22t108 -33.5t89.5 -42.5v564h296v-1659h-296v111q-39 -27 -92 -51t-114 -42t-126.5 -28.5t-129.5 -10.5q-150 0 -275.5 44t-215.5 124t-140.5 191.5t-50.5 246.5zM405 585q0 -71 28.5 -134 t82 -110.5t129 -75t169.5 -27.5q60 0 120 11.5t115.5 32.5t104 51t84.5 67v409q-45 36 -95 61t-102 41t-105 23.5t-103 7.5q-102 0 -181.5 -27.5t-134 -75.5t-83.5 -113t-29 -141z"></glyph><glyph glyph-name="e" unicode="e" d="M129 594q0 120 49 229.5t141 193.5t225.5 134t303.5 50q169 0 304.5 -50.5t230 -138.5t145 -207t50.5 -255q0 -17 -0.5 -36.5t-2.5 -35.5h-1116q19 -53 61.5 -97t106.5 -76t148 -49.5t186 -17.5t203 21.5t193 54.5l100 -226q-58 -27 -117.5 -47.5t-124 -34t-135 -20.5 t-148.5 -7q-199 0 -349 48t-251 131t-152 195t-51 241zM1264 709q-16 49 -49.5 91.5t-83.5 74t-116 49.5t-145 18q-84 0 -153 -19t-121 -51t-86.5 -74t-50.5 -89h805z"></glyph><glyph glyph-name="f" unicode="f" d="M314 958h-202v222h202q0 120 34 213.5t98.5 158t157 98.5t208.5 34q81 0 159 -15.5t138 -44.5l-105 -249q-24 14 -67.5 26t-95.5 12q-102 0 -164.5 -57.5t-66.5 -175.5h373v-222h-373v-958h-296v958z"></glyph><glyph glyph-name="g" unicode="g" d="M370 -200q56 -20 114 -33.5t112.5 -22t104.5 -12t89 -3.5q118 0 205.5 28.5t146 76.5t87.5 111.5t29 134.5v51q-38 -26 -89 -50t-112 -42t-129.5 -29t-141.5 -11q-145 0 -268 43.5t-213 122t-140.5 188.5t-50.5 244q0 137 53 248.5t146.5 190.5t221.5 122t278 43 q64 0 127 -8t120.5 -22t108 -33.5t89.5 -42.5v85h296v-1045q0 -161 -49 -285t-143.5 -208.5t-234.5 -128t-321 -43.5q-65 0 -135 5.5t-140.5 16t-139 25t-131.5 33.5zM425 600q0 -71 28.5 -133.5t81.5 -109t128 -73t169 -26.5q61 0 121.5 11.5t116 32.5t104 51t84.5 67v389 q-45 36 -95 61t-102 41t-105 23.5t-103 7.5q-102 0 -181.5 -27t-134 -73.5t-83.5 -108.5t-29 -133z"></glyph><glyph glyph-name="h" unicode="h" d="M185 1658h296v-568q93 51 207.5 81t240.5 30q146 0 262.5 -43t197.5 -123.5t124.5 -195.5t43.5 -259v-580h-295v568q0 84 -27 153.5t-79 119.5t-126.5 77.5t-168.5 27.5q-113 0 -210 -36t-170 -91v-819h-296v1658z"></glyph><glyph glyph-name="i" unicode="i" d="M341 1341q-44 0 -79.5 12.5t-60.5 34t-38.5 50t-13.5 60.5q0 33 13.5 61.5t38.5 49.5t60.5 33.5t79.5 12.5q45 0 80.5 -12.5t60.5 -33.5t38.5 -49.5t13.5 -61.5q0 -32 -13.5 -60.5t-38.5 -50t-60.5 -34t-80.5 -12.5zM193 1180h296v-1180h-296v1180z"></glyph><glyph glyph-name="j" unicode="j" d="M341 1341q-44 0 -79.5 12.5t-60.5 34t-38.5 50t-13.5 60.5q0 33 13.5 61.5t38.5 49.5t60.5 33.5t79.5 12.5q45 0 80.5 -12.5t60.5 -33.5t38.5 -49.5t13.5 -61.5q0 -32 -13.5 -60.5t-38.5 -50t-60.5 -34t-80.5 -12.5zM193 1180h296v-1003q0 -88 -7.5 -159.5t-25 -132.5 t-47 -114t-73.5 -102t-105 -97.5t-141 -101.5l-109 251q62 46 103 91t65 94t34 105t10 123v1046z"></glyph><glyph glyph-name="k" unicode="k" d="M186 1659h296v-980l552 501h453l-617 -552l656 -628h-444l-439 425l-161 -144v-281h-296v1659z"></glyph><glyph glyph-name="l" unicode="l" d="M193 1659h296v-1659h-296v1659z"></glyph><glyph glyph-name="m" unicode="m" d="M193 1180h296v-100q111 68 216.5 94.5t206.5 26.5q141 0 259 -45t202 -136q65 50 128 84.5t126 56t128 31t134 9.5q145 0 263 -39.5t201.5 -117.5t129 -194.5t45.5 -269.5v-580h-295v532q0 97 -27.5 173.5t-77 129t-118 80t-150.5 27.5q-45 0 -92 -8.5t-91.5 -26.5 t-83.5 -45.5t-68 -64.5v-797h-295v532q0 97 -27.5 173.5t-77 129t-119 80t-152.5 27.5q-51 0 -102.5 -10.5t-99 -29.5t-89 -46t-74.5 -61v-795h-296v1180z"></glyph><glyph glyph-name="n" unicode="n" d="M185 1180h296v-100q118 67 225.5 94t210.5 27q135 0 250 -39.5t199 -117.5t131.5 -194.5t47.5 -269.5v-580h-295v532q0 97 -27.5 173.5t-79 129t-125 80t-164.5 27.5q-48 0 -98.5 -10t-99 -28.5t-93.5 -46t-82 -62.5v-795h-296v1180z"></glyph><glyph glyph-name="o" unicode="o" d="M114 590q0 127 51.5 238t147 194t231 131t304.5 48t304.5 -48t231 -131t147 -194t51.5 -238t-51.5 -238t-147 -194t-231 -131t-304.5 -48t-304.5 48t-231 131t-147 194t-51.5 238zM425 590q0 -71 28.5 -134.5t83 -112t133 -77t178.5 -28.5t178.5 28.5t133 77t83 112 t28.5 134.5t-28.5 135t-83 112.5t-133 77t-178.5 28.5t-178.5 -28.5t-133 -77t-83 -112.5t-28.5 -135z"></glyph><glyph glyph-name="p" unicode="p" d="M473 -482h-296v1662h296v-111q39 27 92 51t114 42t126 28.5t130 10.5q150 0 275.5 -44t215.5 -124t140.5 -191.5t50.5 -246.5q0 -141 -53 -254.5t-146.5 -194t-222 -124t-278.5 -43.5q-64 0 -126.5 8t-120 22t-108 33.5t-89.5 42.5v-567zM473 371q45 -36 95 -61t102 -41 t105 -23.5t103 -7.5q102 0 181.5 27.5t134 75.5t83.5 113t29 141q0 71 -28.5 134t-82 110.5t-129 75t-169.5 27.5q-60 0 -120 -11.5t-115.5 -32.5t-104 -51t-84.5 -67v-409z"></glyph><glyph glyph-name="q" unicode="q" d="M114 585q0 141 53 254.5t146.5 194t222 124t278.5 43.5q129 0 237 -29.5t187 -76.5v85h296v-1662h-296v593q-39 -27 -89 -51t-107 -42t-119.5 -28.5t-126.5 -10.5q-150 0 -275.5 44t-215.5 124t-140.5 191.5t-50.5 246.5zM425 585q0 -71 28.5 -134t82 -110.5t129 -75 t169.5 -27.5q60 0 117 11.5t108.5 32.5t97 51t81.5 67v409q-91 72 -187.5 102.5t-197.5 30.5q-102 0 -181.5 -27.5t-134 -75.5t-83.5 -113t-29 -141z"></glyph><glyph glyph-name="r" unicode="r" d="M185 1180h296v-170q98 73 207 126t217 81l87 -271q-171 -17 -300.5 -76.5t-210.5 -167.5v-702h-296v1180z"></glyph><glyph glyph-name="s" unicode="s" d="M232 362q120 -72 264 -106t295 -34q102 0 170 14t109 36t58 50t17 57q0 42 -36.5 72t-120.5 30q-39 0 -84 -5l-94.5 -10.5t-103 -10.5t-108.5 -5q-120 0 -204.5 26t-137.5 71t-77 106.5t-24 132.5q0 90 42 166t120 131.5t188.5 86.5t246.5 31q71 0 148.5 -8.5 t152.5 -22.5t144 -32.5t122 -39.5l-93 -230q-113 42 -225.5 66.5t-231.5 24.5q-83 0 -140.5 -12.5t-93.5 -33t-52.5 -47t-16.5 -55.5q0 -21 8.5 -38t28 -29.5t51 -19t77.5 -6.5q42 0 89 5t98 10.5t105.5 10.5t111.5 5q106 0 185.5 -25t131.5 -70t78 -106t26 -133 q0 -93 -43 -173t-128 -138.5t-211.5 -91.5t-292.5 -33q-102 0 -197 12.5t-181 34t-161.5 50.5t-137.5 62z"></glyph><glyph glyph-name="t" unicode="t" d="M363 958h-285v222h285v367h296v-367h285v-222h-285v-958h-296v958z"></glyph><glyph glyph-name="u" unicode="u" d="M185 1181h295v-576q0 -82 18 -149.5t61.5 -115.5t116 -74.5t180.5 -26.5q51 0 103.5 11t100.5 30.5t89.5 46.5t71.5 59v795h296v-1181h-296v101q-109 -65 -219 -93t-209 -28q-162 0 -277.5 39t-189 113.5t-107.5 183t-34 247.5v618z"></glyph><glyph glyph-name="v" unicode="v" d="M22 1181h343l307 -710l80 -199l80 199l307 710h343l-559 -1181h-342z"></glyph><glyph glyph-name="w" unicode="w" d="M22 1181h343l307 -710l90 -199l110 258l-292 651h288l143 -350l143 350h288l-293 -651l111 -258l90 199l307 710h343l-559 -1181h-322l-108 228l-108 -228h-322z"></glyph><glyph glyph-name="x" unicode="x" d="M491 590l-488 591h378l296 -360l281 360h369l-459 -590l488 -591h-378l-305 369l-283 -369h-369z"></glyph><glyph glyph-name="y" unicode="y" d="M326 -148q46 -30 100 -53t112.5 -38t119.5 -22.5t121 -7.5q204 0 314.5 87.5t110.5 262.5v40q-39 -27 -87.5 -49.5t-104 -38.5t-117 -24.5t-124.5 -8.5q-135 0 -241.5 39.5t-180 116t-112.5 188.5t-39 256v580h295v-498q0 -214 81.5 -315.5t257.5 -101.5 q124 0 219.5 43.5t152.5 111.5v760h296v-1045q0 -169 -48 -293.5t-139.5 -206.5t-224.5 -122.5t-302 -40.5q-165 0 -308 35t-262 95z"></glyph><glyph glyph-name="z" unicode="z" d="M754 934h-605v246h1154l-728 -934h688v-246h-1232z"></glyph><glyph glyph-name="braceleft" unicode="{" d="M590 213q0 100 -26.5 188.5t-80.5 162t-137 130t-196 92.5q113 36 196 92t137 129.5t80.5 162.5t26.5 189v63q0 122 30.5 215t95.5 156t166 95t242 32h133v-213h-133q-64 0 -115.5 -17t-87.5 -52.5t-55 -89t-19 -126.5v-59q0 -223 -73.5 -365.5t-216.5 -211.5 q143 -69 216.5 -211.5t73.5 -365.5v-59q0 -73 19 -126.5t55 -89t87.5 -52.5t115.5 -17h133v-213h-133q-141 0 -242 32t-166 95t-95.5 156t-30.5 215v63z"></glyph><glyph glyph-name="bar" unicode="|" d="M211 1770h257v-2252h-257v2252z"></glyph><glyph glyph-name="braceright" unicode="}" d="M778.036 213q0 100 26.498 188.5q26.499 88.5 80.4951 162q53.9971 73.5 136.992 130q82.9941 56.5 195.987 92.5q-112.993 36 -195.987 92q-82.9951 56 -136.992 129.5q-53.9961 73.5 -80.4951 162.5q-26.498 89 -26.498 189v63q0 122 -30.498 215t-95.4941 156 t-165.99 95t-241.985 32h-132.991v-213h132.991q63.9961 0 115.493 -17t87.4951 -52.5q35.9971 -35.5 54.9961 -89t18.999 -126.5v-59q0 -223 73.4951 -365.5q73.4961 -142.5 216.487 -211.5q-142.991 -69 -216.487 -211.5q-73.4951 -142.5 -73.4951 -365.5v-59 q0 -73 -18.999 -126.5t-54.9961 -89q-35.998 -35.5 -87.4951 -52.5t-115.493 -17h-132.991v-213h132.991q140.991 0 241.985 32t165.99 95t95.4941 156t30.498 215v63z"></glyph><glyph glyph-name="asciitilde" unicode="~" d="M171 859q79 102 178 158.5t215 64.5q63 4 116 -6t99 -27.5t88 -39.5t82.5 -41t82 -32t87.5 -13q82 0 148 42t117 108l142 -181q-79 -102 -178 -158.5t-215 -64.5q-63 -4 -116 6t-99 27.5t-88 39.5t-82.5 41t-82 32t-87.5 13q-82 0 -148 -42t-117 -108z"></glyph><glyph glyph-name="nonbreakingspace" unicode=" "></glyph><glyph glyph-name="exclamdown" unicode="¡" d="M271 -380.904h317v993.939h-317v-993.939zM192 1009.01q0 -39.998 16.5 -75.4951q16.5 -35.498 47.5 -61.9971q31 -26.498 75 -41.4971t99 -14.999t99 14.999t74.5 41.4971q30.5 26.499 47 61.9971q16.5 35.4971 16.5 75.4951q0 39.9971 -16.5 75.4951t-47 61.4961 q-30.5 25.999 -74.5 41.498t-99 15.499t-99 -15.499t-75 -41.498q-31 -25.998 -47.5 -61.4961t-16.5 -75.4951z"></glyph><glyph glyph-name="cent" unicode="¢" d="M698 1503h237v-1825h-237v1825zM114 587q0 130 47.5 242.5t139 195t224 129.5t302.5 47q74 0 149 -9t144.5 -25.5t130.5 -39t106 -49.5l-137 -223q-97 45 -183.5 66t-175.5 21q-102 0 -183 -26.5t-137.5 -74t-86 -112t-29.5 -140.5t31.5 -140.5t89 -111t139 -73 t181.5 -26.5q110 0 207.5 31t181.5 83l137 -223q-53 -32 -115 -59.5t-132.5 -47.5t-148 -31.5t-160.5 -11.5q-169 0 -303 46t-227 127.5t-142.5 192.5t-49.5 242z"></glyph><glyph glyph-name="sterling" unicode="£" d="M274 655h-214v222h266l49 204q26 112 73.5 204.5t118 158.5t164 102.5t212.5 36.5q78 0 156.5 -15.5t138.5 -44.5l-105 -249q-24 14 -67.5 26t-93.5 12q-53 0 -101 -17t-87 -48.5t-67.5 -77t-43.5 -103.5l-50 -189h354v-222h-413l-104 -397h486q76 0 123.5 15.5 t74.5 45.5t36.5 73t9.5 98v19.5t-1 20.5h277q4 -24 5.5 -47t1.5 -46q0 -98 -29.5 -178.5t-89 -138t-149 -89t-209.5 -31.5h-877z"></glyph><glyph glyph-name="currency" unicode="¤" d="M130 399l182 181q-32 52 -49.5 112t-17.5 127q0 54 11.5 104.5t33.5 95.5l-160 160l164 164l151 -151q52 32 114 50.5t133 18.5q68 0 127.5 -17t110.5 -47l148 146l164 -164l-153 -152q24 -47 37 -99t13 -109q0 -69 -18.5 -131t-53.5 -116l175 -173l-164 -164l-187 185 q-91 -43 -199 -43q-58 0 -110 12t-98 35l-190 -189zM692 593q51 0 93 17t73 47t48 71.5t17 90.5t-17 90.5t-48 71.5t-73 47t-93 17t-93 -17t-73 -47t-48 -71.5t-17 -90.5t17 -90.5t48 -71.5t73 -47t93 -17z"></glyph><glyph glyph-name="yen" unicode="¥" d="M186 494h487l-94 154h-393v222h257l-425 693h346l491 -843l491 843h346l-425 -693h256v-222h-392l-95 -154h487v-222h-509v-272h-317v272h-511v222z"></glyph><glyph glyph-name="brokenbar" unicode="¦" d="M212 1770h257v-934h-257v934zM469 454v-934h-257v934h257z"></glyph><glyph glyph-name="section" unicode="§" d="M351 148q170 -78 365.5 -117t396.5 -39q141 0 233 18t146 46.5t75 64.5t21 71q0 64 -61.5 105.5t-189.5 41.5q-54 0 -122 -7t-142 -15.5t-151.5 -15.5t-151.5 -7q-147 0 -254 31.5t-176.5 84t-103 121.5t-33.5 145q0 80 35.5 158.5t106.5 144.5q-66 51 -104 124t-38 172 q0 62 17.5 124.5t56 119.5t99.5 106.5t148 85.5t201.5 57t259.5 21q103 0 207.5 -10.5t204.5 -30t193 -47t173 -61.5l-140 -238q-65 26 -140.5 49t-158.5 40t-170.5 26.5t-175.5 9.5q-133 0 -219 -21t-136 -54t-69.5 -73t-19.5 -77q0 -72 62 -113.5t189 -41.5q55 0 122.5 7 t142 15.5t151.5 15.5t150 7q138 0 244 -29t178 -82.5t109 -129.5t37 -169q0 -74 -27 -144.5t-97 -142.5q60 -53 92 -122.5t32 -153.5q0 -61 -18.5 -121t-59 -114.5t-104.5 -101t-155 -80.5t-210.5 -53t-270.5 -19q-138 0 -276 15.5t-259.5 40.5t-217.5 56.5t-151 63.5z M536 726q0 -30 14 -57.5t47 -49t88 -34t137 -12.5q67 0 139 7.5t145 17t145 17t139 7.5q35 0 67.5 -2.5t64.5 -7.5q35 28 49.5 60.5t14.5 67.5q0 82 -70 128.5t-218 46.5q-65 0 -137 -8t-145.5 -17.5t-145 -17.5t-136.5 -8q-53 0 -104 6q-44 -23 -69 -61.5t-25 -82.5z"></glyph><glyph glyph-name="dieresis" unicode="¨" d="M910 1402q-49 0 -88 15t-66.5 40.5t-42 58.5t-14.5 69t14.5 68.5t42 57t66.5 38.5t88 14t88.5 -14t67 -38.5t42 -57t14.5 -68.5t-14.5 -69t-42 -58.5t-67 -40.5t-88.5 -15zM311 1402q-49 0 -88 15t-66.5 40.5t-42 58.5t-14.5 69t14.5 68.5t42 57t66.5 38.5t88 14 t88.5 -14t67 -38.5t42 -57t14.5 -68.5t-14.5 -69t-42 -58.5t-67 -40.5t-88.5 -15z"></glyph><glyph glyph-name="copyright" unicode="©" d="M212 869q0 123 30 237.5t86.5 213.5t137 180t180.5 139t218 89.5t250 31.5q131 0 249 -31.5t218.5 -89.5t181 -139t136.5 -180t86.5 -213.5t30.5 -237.5t-30 -237t-86.5 -213t-137 -180.5t-180.5 -139.5t-218 -90t-250 -32t-250 32t-218.5 90t-180.5 139.5t-136.5 180.5 t-86.5 213t-30 237zM421 869q0 -99 23 -187.5t66.5 -164t105 -136.5t138.5 -104t168 -66t192 -23q151 0 278.5 51t219.5 141.5t143.5 215.5t51.5 273q0 147 -51.5 272t-143.5 216t-219 142t-279 51t-279.5 -51t-219.5 -142t-143 -216t-51 -272zM656 873q0 88 32.5 167 t94.5 138t152 93.5t206 34.5q45 0 91 -5.5t90 -15t84.5 -23.5t73.5 -32l-74 -164q-63 29 -123 41.5t-114 12.5q-72 0 -126.5 -19.5t-91 -53.5t-55.5 -79t-19 -96q0 -52 19.5 -98t57 -80t92 -53.5t125.5 -19.5q76 0 143.5 22t117.5 57l75 -165q-69 -43 -159.5 -71.5 t-197.5 -28.5q-112 0 -203.5 33.5t-156 92.5t-99.5 139t-35 173z"></glyph><glyph glyph-name="ordfeminine" unicode="ª" d="M583 693q-101 0 -175.5 22t-123 61t-72.5 92t-24 115q0 63 25 114.5t76.5 88.5t130.5 57.5t186 20.5q161 0 344 -48q-24 92 -100.5 136t-197.5 44q-76 0 -159.5 -17.5t-163.5 -53.5l-69 189q102 36 212 58t219 22q244 0 366.5 -124.5t122.5 -381.5v-379h-228v82 q-31 -19 -69.5 -36.5t-84 -31t-99.5 -22t-116 -8.5zM609 891q57 0 108 10t95 27t79.5 39.5t60.5 46.5v18q-47 14 -93 23.5t-89 15t-80.5 8t-67.5 2.5q-57 0 -94 -7t-59.5 -19t-31.5 -28.5t-9 -35.5q0 -20 9 -38t30 -31.5t56 -22t86 -8.5z"></glyph><glyph glyph-name="guillemotleft" unicode="«" d="M240 394l409 314l-409 314l140 183l645 -497l-645 -497zM1070 394l409 314l-409 314l140 183l645 -497l-645 -497z"></glyph><glyph glyph-name="logicalnot" unicode="¬" d="M137 1060h1206l-1 -579h-232v357h-973v222z"></glyph><glyph glyph-name="uni00AD" unicode="­"></glyph><glyph glyph-name="registered" unicode="®" d="M212 869q0 123 30 237.5t86.5 213.5t137 180t180.5 139t218 89.5t250 31.5q131 0 249 -31.5t218.5 -89.5t181 -139t136.5 -180t86.5 -213.5t30.5 -237.5t-30 -237t-86.5 -213t-137 -180.5t-180.5 -139.5t-218 -90t-250 -32t-250 32t-218.5 90t-180.5 139.5t-136.5 180.5 t-86.5 213t-30 237zM421 869q0 -99 23 -187.5t66.5 -164t105 -136.5t138.5 -104t168 -66t192 -23q151 0 278.5 51t219.5 141.5t143.5 215.5t51.5 273q0 147 -51.5 272t-143.5 216t-219 142t-279 51t-279.5 -51t-219.5 -142t-143 -216t-51 -272zM734 1297h310 q145 0 240 -23.5t151 -63.5t78.5 -93.5t22.5 -113.5q0 -45 -11.5 -86t-37 -75.5t-65.5 -61.5t-98 -46l228 -274h-247l-200 240h-56l-111 1v-241h-204v837zM1047 868q78 0 131.5 8.5t85.5 25t46 40t14 53.5q0 29 -13.5 53t-46 41t-86 26.5t-134.5 9.5h-106v-257h109z"></glyph><glyph glyph-name="macron" unicode="¯" d="M100 1690h993v-243h-993v243z"></glyph><glyph glyph-name="degree" unicode="°" d="M429 943q-71 0 -130.5 23t-103 66t-68 102.5t-24.5 133.5q0 73 24.5 133t68 103t103 66t130.5 23t130.5 -23t103 -66t68 -103t24.5 -133q0 -74 -24.5 -133.5t-68 -102.5t-103 -66t-130.5 -23zM429 1107q31 0 58 12t47 33t31.5 50.5t11.5 65.5t-11.5 65.5t-31.5 50.5 t-47 33t-58 12t-58 -12t-47 -33t-31.5 -50.5t-11.5 -65.5t11.5 -65.5t31.5 -50.5t47 -33t58 -12z"></glyph><glyph glyph-name="plusminus" unicode="±" d="M137 221h917v-222h-917v222zM479 684h-342v222h342v339h232v-339h343v-222h-343v-357h-232v357z"></glyph><glyph glyph-name="twosuperior" unicode="²" d="M155 917l371 267q78 55 126 94.5t75 70t36 55t9 49.5q0 61 -49 96t-152 35q-81 0 -169 -26t-174 -77l-100 187q100 63 217.5 97.5t244.5 34.5q111 0 193 -27t136 -73t80.5 -106.5t26.5 -127.5q0 -41 -12.5 -87.5t-51 -100.5t-108.5 -117t-184 -138l-155 -111h544v-214 h-904v219z"></glyph><glyph glyph-name="threesuperior" unicode="³" d="M216 969q80 -39 171 -57t178 -18q72 0 122.5 11t83 30t47 44t14.5 52q0 40 -30 75t-90.5 54.5t-153.5 17.5t-219 -37l1 178l356 236h-523v214h866v-190l-346 -219q91 -3 162.5 -30t120.5 -71.5t74.5 -104t25.5 -126.5q0 -80 -35.5 -144.5t-102 -110.5t-162 -70.5 t-215.5 -24.5q-128 0 -237 27t-206 76z"></glyph><glyph glyph-name="acute" unicode="´" d="M98 1528l686 321l111 -229l-698 -299z"></glyph><glyph glyph-name="mu" unicode="µ" d="M481 -481h-296l1 1661v1h296v-576q0 -82 18 -149.5t61.5 -115.5t116 -74.5t180.5 -26.5q51 0 103.5 11t100.5 30.5t89.5 46.5t71.5 59v795h296v-1180h-296v100q-109 -65 -219 -93t-209 -28q-92 0 -170.5 19.5t-143.5 62.5v-543z"></glyph><glyph glyph-name="paragraph" unicode="¶" d="M878 460q-183 5 -325.5 44.5t-239.5 110t-147.5 170.5t-50.5 226q0 77 19.5 148.5t62 134t109.5 114t160.5 88t216 57t276.5 20.5h925v-213h-259v-1842h-257v1842h-233v-1842h-257v942z"></glyph><glyph glyph-name="periodcentered" unicode="·" d="M191 818q0 40 16.5 75.5t47.5 62t75 41.5t99 15t99 -15t74.5 -41.5t47 -62t16.5 -75.5t-16.5 -75.5t-47 -61.5t-74.5 -41.5t-99 -15.5t-99 15.5t-75 41.5t-47.5 61.5t-16.5 75.5z"></glyph><glyph glyph-name="cedilla" unicode="¸" d="M473 30v-103q170 -20 245.5 -80.5t75.5 -156.5q0 -55 -27.5 -96t-75 -68.5t-112 -41.5t-139.5 -14q-79 0 -162 15.5t-151 44.5l67 161q66 -23 122.5 -32t106.5 -9q40 0 66.5 4.5t42.5 12t22.5 17t6.5 19.5q0 15 -13 27.5t-44 21.5t-84 14t-132 5v259h185z"></glyph><glyph glyph-name="onesuperior" unicode="¹" d="M144 912h217v639q-84 -23 -162 -70l-119 174q110 66 241 99.5t277 33.5l-1 -1h1v-875h189v-214h-643v214z"></glyph><glyph glyph-name="ordmasculine" unicode="º" d="M684 689q-125 0 -226 35.5t-172 97t-109 144.5t-38 177t38 176.5t109 144t172 97t226 35.5t226 -35.5t172 -97t109 -144t38 -176.5t-38 -177t-109 -144.5t-172 -97t-226 -35.5zM684 892q72 0 128.5 20t95.5 54.5t59.5 80t20.5 96.5t-20.5 96.5t-59.5 80t-95.5 55 t-128.5 20.5t-128.5 -20.5t-95.5 -55t-59.5 -80t-20.5 -96.5t20.5 -96.5t59.5 -80t95.5 -54.5t128.5 -20z"></glyph><glyph glyph-name="guillemotright" unicode="»" d="M972.015 394l-408.975 314l408.975 314l-139.991 183l-644.961 -497l644.961 -497zM1802.01 394l-408.975 314l408.975 314l-139.991 183l-644.961 -497l644.961 -497z"></glyph><glyph glyph-name="onequarter" unicode="¼" d="M1904 1920h267l-1282 -2097h-267zM1638 414l624 649h237v-649h185v-214h-185v-200h-237v200h-624v214zM2262 414v357l-347 -357h347zM274 912h217v639q-84 -23 -162 -70l-119 174q110 66 241 99.5t277 33.5l-1 -1h1v-875h189v-214h-643v214z"></glyph><glyph glyph-name="onehalf" unicode="½" d="M1874 1920h267l-1282 -2097h-267zM274 912h217v639q-84 -23 -162 -70l-119 174q110 66 241 99.5t277 33.5l-1 -1h1v-875h189v-214h-643v214zM1801 206l371 267q78 55 126 94.5t75 70t36 55t9 49.5q0 61 -49 96t-152 35q-81 0 -169 -26t-174 -77l-100 187 q100 63 217.5 97.5t244.5 34.5q111 0 193 -27t136 -73t80.5 -106.5t26.5 -127.5q0 -41 -12.5 -87.5t-51 -100.5t-108.5 -117t-184 -138l-155 -111h544v-214h-904v219z"></glyph><glyph glyph-name="threequarters" unicode="¾" d="M1904 1920h267l-1282 -2097h-267zM1638 414l624 649h237v-649h185v-214h-185v-200h-237v200h-624v214zM2262 414v357l-347 -357h347zM198 969q80 -39 171 -57t178 -18q72 0 122.5 11t83 30t47 44t14.5 52q0 40 -30 75t-90.5 54.5t-153.5 17.5t-219 -37l1 178l356 236 h-523v214h866v-190l-346 -219q91 -3 162.5 -30t120.5 -71.5t74.5 -104t25.5 -126.5q0 -80 -35.5 -144.5t-102 -110.5t-162 -70.5t-215.5 -24.5q-128 0 -237 27t-206 76z"></glyph><glyph glyph-name="questiondown" unicode="¿" d="M1041.04 219.059q-168.99 -7.99902 -282.982 -25.498q-113.993 -17.499 -182.489 -42.998q-68.4961 -25.498 -97.4941 -57.9961t-28.998 -71.4961q0 -36.9971 23.998 -65.9951q23.999 -28.999 68.9961 -48.4971q44.9971 -19.499 109.493 -29.499 q64.4961 -9.99902 145.491 -9.99902q86.9951 0 175.989 10.999q88.9941 11 170.989 29.999q81.9951 18.998 153.991 44.9971q71.9951 25.998 125.992 54.9961l145.991 -239.985q-50.9971 -29.998 -127.992 -62.4961t-174.489 -59.4961t-212.487 -43.9971t-242.985 -16.999 q-158.99 0 -285.482 29.498t-213.987 84.9951q-87.4941 55.4961 -133.991 136.491t-46.4971 183.988q0 77.9961 30.498 143.992q30.498 65.9951 102.493 118.992q71.9961 52.9971 191.988 91.9941q119.993 38.998 298.982 62.9961v172.99h284.982v-391.977zM1109.04 1007.01 q0 -39.998 -16.499 -75.4951q-16.499 -35.498 -47.4971 -61.9971q-30.998 -26.498 -74.9961 -41.4971q-43.9971 -14.999 -98.9941 -14.999q-54.9961 0 -98.9932 14.999q-43.998 14.999 -74.4961 41.4971q-30.498 26.499 -46.9971 61.9971q-16.499 35.4971 -16.499 75.4951 q0 39.9971 16.499 75.4951t46.9971 61.4961q30.498 25.999 74.4961 41.498q43.9971 15.499 98.9932 15.499q54.9971 0 98.9941 -15.499q43.998 -15.499 74.9961 -41.498q30.998 -25.998 47.4971 -61.4961t16.499 -75.4951z"></glyph><glyph glyph-name="Agrave" unicode="À" d="M755 1563h336l756 -1563h-333l-125 263h-913l-121 -263h-334zM1264 524l-338 710l-329 -710h667zM624 2030l674 -189l-62 -218l-682 159z"></glyph><glyph glyph-name="Aacute" unicode="Á" d="M755 1563h336l756 -1563h-333l-125 263h-913l-121 -263h-334zM1264 524l-338 710l-329 -710h667zM554 1841l674 189l70 -248l-682 -159z"></glyph><glyph glyph-name="Acircumflex" unicode="Â" d="M755 1563h336l756 -1563h-333l-125 263h-913l-121 -263h-334zM1264 524l-338 710l-329 -710h667zM469 1823l457 207l457 -207l-109 -214l-348 163l-348 -163z"></glyph><glyph glyph-name="Atilde" unicode="Ã" d="M755 1563h336l756 -1563h-333l-125 263h-913l-121 -263h-334zM1264 524l-338 710l-329 -710h667zM478 1913q54 57 121 87t139 30q63 0 111 -19.5t91 -43t84 -43t90 -19.5q30 0 65.5 8.5t70.5 23.5t67.5 36t56.5 45v-240q-54 -57 -121 -87t-139 -30q-63 0 -111 19.5 t-91 43t-84 43t-90 19.5q-30 0 -65.5 -8.5t-70.5 -23.5t-67.5 -36t-56.5 -45v240z"></glyph><glyph glyph-name="Adieresis" unicode="Ä" d="M755 1563h336l756 -1563h-333l-125 263h-913l-121 -263h-334zM1264 524l-338 710l-329 -710h667zM1271 1669q-49 0 -88 15t-66.5 40.5t-42 58.5t-14.5 69t14.5 68.5t42 57t66.5 38.5t88 14t88.5 -14t67 -38.5t42 -57t14.5 -68.5t-14.5 -69t-42 -58.5t-67 -40.5t-88.5 -15 zM580 1669q-49 0 -88 15t-66.5 40.5t-42 58.5t-14.5 69t14.5 68.5t42 57t66.5 38.5t88 14t88.5 -14t67 -38.5t42 -57t14.5 -68.5t-14.5 -69t-42 -58.5t-67 -40.5t-88.5 -15z"></glyph><glyph glyph-name="Aring" unicode="Å" d="M755 1563h336l756 -1563h-333l-125 263h-913l-121 -263h-334zM1264 524l-338 710l-329 -710h667zM926 1415q-80 0 -143 24t-107 65.5t-67.5 97.5t-23.5 120t23.5 120t67.5 97.5t107 65.5t143 24q79 0 142.5 -24t107.5 -65.5t67.5 -97.5t23.5 -120t-23.5 -120t-67.5 -97.5 t-107.5 -65.5t-142.5 -24zM926 1582q34 0 61.5 11t46 30t28.5 44.5t10 54.5q0 30 -10 55t-28.5 44t-46 29.5t-61.5 10.5q-35 0 -62 -10.5t-45.5 -29.5t-28.5 -44t-10 -55q0 -29 10 -54.5t28.5 -44.5t45.5 -30t62 -11z"></glyph><glyph glyph-name="AE" unicode="Æ" d="M1193 1563h1310v-278h-885v-312h769v-261h-769v-435h906v-277h-1223v263h-755l-198 -263h-344zM1301 524v740l-558 -740h558zM1301 1563h1331v-278h-1014v-312h898v-261h-898v-435h1035v-277h-1352v1563z"></glyph><glyph glyph-name="Ccedilla" unicode="Ç" d="M127 791q0 167 63 311.5t182.5 251t292 167.5t390.5 61q191 0 350.5 -38.5t296.5 -117.5l-146 -240q-41 27 -94.5 48t-114 35.5t-125 22.5t-127.5 8q-152 0 -271 -37.5t-200.5 -105t-124 -161t-42.5 -205.5q0 -116 44 -213t127.5 -167.5t204 -110t272.5 -39.5 q69 0 137 10t131.5 27.5t122.5 42t110 53.5l146 -240q-128 -82 -296 -128.5t-357 -46.5q-241 0 -423 62.5t-304 172t-183.5 258t-61.5 319.5zM1038 30v-103q170 -20 245.5 -80.5t75.5 -156.5q0 -55 -27.5 -96t-75 -68.5t-112 -41.5t-139.5 -14q-79 0 -162 15.5t-151 44.5 l67 161q66 -23 122.5 -32t106.5 -9q40 0 66.5 4.5t42.5 12t22.5 17t6.5 19.5q0 15 -13 27.5t-44 21.5t-84 14t-132 5v259h185z"></glyph><glyph glyph-name="Egrave" unicode="È" d="M222 1563h1331v-278h-1014v-312h898v-261h-898v-435h1035v-277h-1352v1563zM596 2030l674 -189l-62 -218l-682 159z"></glyph><glyph glyph-name="Eacute" unicode="É" d="M222 1563h1331v-278h-1014v-312h898v-261h-898v-435h1035v-277h-1352v1563zM526 1841l674 189l70 -248l-682 -159z"></glyph><glyph glyph-name="Ecircumflex" unicode="Ê" d="M222 1563h1331v-278h-1014v-312h898v-261h-898v-435h1035v-277h-1352v1563zM441 1823l457 207l457 -207l-109 -214l-348 163l-348 -163z"></glyph><glyph glyph-name="Edieresis" unicode="Ë" d="M222 1563h1331v-278h-1014v-312h898v-261h-898v-435h1035v-277h-1352v1563zM1243 1669q-49 0 -88 15t-66.5 40.5t-42 58.5t-14.5 69t14.5 68.5t42 57t66.5 38.5t88 14t88.5 -14t67 -38.5t42 -57t14.5 -68.5t-14.5 -69t-42 -58.5t-67 -40.5t-88.5 -15zM552 1669 q-49 0 -88 15t-66.5 40.5t-42 58.5t-14.5 69t14.5 68.5t42 57t66.5 38.5t88 14t88.5 -14t67 -38.5t42 -57t14.5 -68.5t-14.5 -69t-42 -58.5t-67 -40.5t-88.5 -15z"></glyph><glyph glyph-name="Igrave" unicode="Ì" d="M182 1563h319v-1563h-319v1563zM40 2030l674 -189l-62 -218l-682 159z"></glyph><glyph glyph-name="Iacute" unicode="Í" d="M182 1563h319v-1563h-319v1563zM-30 1841l674 189l70 -248l-682 -159z"></glyph><glyph glyph-name="Icircumflex" unicode="Î" d="M182 1563h319v-1563h-319v1563zM-115 1823l457 207l457 -207l-109 -214l-348 163l-348 -163z"></glyph><glyph glyph-name="Idieresis" unicode="Ï" d="M182 1563h319v-1563h-319v1563zM687 1669q-49 0 -88 15t-66.5 40.5t-42 58.5t-14.5 69t14.5 68.5t42 57t66.5 38.5t88 14t88.5 -14t67 -38.5t42 -57t14.5 -68.5t-14.5 -69t-42 -58.5t-67 -40.5t-88.5 -15zM-4 1669q-49 0 -88 15t-66.5 40.5t-42 58.5t-14.5 69t14.5 68.5 t42 57t66.5 38.5t88 14t88.5 -14t67 -38.5t42 -57t14.5 -68.5t-14.5 -69t-42 -58.5t-67 -40.5t-88.5 -15z"></glyph><glyph glyph-name="Eth" unicode="Ð" d="M8 915h917v-222h-917v222zM222 1563h573q251 0 436 -54t306.5 -154.5t181 -244t59.5 -322.5q0 -170 -59 -314.5t-180 -250t-306 -165t-436 -59.5l-575 1v1563zM873 274q142 0 249 36.5t178.5 103.5t107.5 162t36 212q0 115 -36 207.5t-107.5 157t-178.5 99.5t-249 35 h-334v-1013h334z"></glyph><glyph glyph-name="Ntilde" unicode="Ñ" d="M220 1563h317l974 -510v510h317v-1563h-317v717l-974 507v-1224h-317v1563zM576 1913q54 57 121 87t139 30q63 0 111 -19.5t91 -43t84 -43t90 -19.5q30 0 65.5 8.5t70.5 23.5t67.5 36t56.5 45v-240q-54 -57 -121 -87t-139 -30q-63 0 -111 19.5t-91 43t-84 43t-90 19.5 q-30 0 -65.5 -8.5t-70.5 -23.5t-67.5 -36t-56.5 -45v240z"></glyph><glyph glyph-name="Ograve" unicode="Ò" d="M130 786q0 177 65 324t182.5 252.5t282 163.5t364.5 58q199 0 364 -58t282.5 -163.5t182.5 -252.5t65 -324q0 -178 -65 -326.5t-182.5 -255.5t-282.5 -166.5t-364 -59.5q-200 0 -364.5 59.5t-282 166.5t-182.5 255.5t-65 326.5zM447 786q0 -121 43.5 -218t121 -165.5 t183 -105.5t229.5 -37t229.5 37t182.5 105.5t121 165.5t44 218t-44 217t-121 162.5t-182.5 101.5t-229.5 35t-229.5 -35t-183 -101.5t-121 -162.5t-43.5 -217zM722 2030l674 -189l-62 -218l-682 159z"></glyph><glyph glyph-name="Oacute" unicode="Ó" d="M130 786q0 177 65 324t182.5 252.5t282 163.5t364.5 58q199 0 364 -58t282.5 -163.5t182.5 -252.5t65 -324q0 -178 -65 -326.5t-182.5 -255.5t-282.5 -166.5t-364 -59.5q-200 0 -364.5 59.5t-282 166.5t-182.5 255.5t-65 326.5zM447 786q0 -121 43.5 -218t121 -165.5 t183 -105.5t229.5 -37t229.5 37t182.5 105.5t121 165.5t44 218t-44 217t-121 162.5t-182.5 101.5t-229.5 35t-229.5 -35t-183 -101.5t-121 -162.5t-43.5 -217zM652 1841l674 189l70 -248l-682 -159z"></glyph><glyph glyph-name="Ocircumflex" unicode="Ô" d="M130 786q0 177 65 324t182.5 252.5t282 163.5t364.5 58q199 0 364 -58t282.5 -163.5t182.5 -252.5t65 -324q0 -178 -65 -326.5t-182.5 -255.5t-282.5 -166.5t-364 -59.5q-200 0 -364.5 59.5t-282 166.5t-182.5 255.5t-65 326.5zM447 786q0 -121 43.5 -218t121 -165.5 t183 -105.5t229.5 -37t229.5 37t182.5 105.5t121 165.5t44 218t-44 217t-121 162.5t-182.5 101.5t-229.5 35t-229.5 -35t-183 -101.5t-121 -162.5t-43.5 -217zM567 1823l457 207l457 -207l-109 -214l-348 163l-348 -163z"></glyph><glyph glyph-name="Otilde" unicode="Õ" d="M130 786q0 177 65 324t182.5 252.5t282 163.5t364.5 58q199 0 364 -58t282.5 -163.5t182.5 -252.5t65 -324q0 -178 -65 -326.5t-182.5 -255.5t-282.5 -166.5t-364 -59.5q-200 0 -364.5 59.5t-282 166.5t-182.5 255.5t-65 326.5zM447 786q0 -121 43.5 -218t121 -165.5 t183 -105.5t229.5 -37t229.5 37t182.5 105.5t121 165.5t44 218t-44 217t-121 162.5t-182.5 101.5t-229.5 35t-229.5 -35t-183 -101.5t-121 -162.5t-43.5 -217zM576 1913q54 57 121 87t139 30q63 0 111 -19.5t91 -43t84 -43t90 -19.5q30 0 65.5 8.5t70.5 23.5t67.5 36 t56.5 45v-240q-54 -57 -121 -87t-139 -30q-63 0 -111 19.5t-91 43t-84 43t-90 19.5q-30 0 -65.5 -8.5t-70.5 -23.5t-67.5 -36t-56.5 -45v240z"></glyph><glyph glyph-name="Odieresis" unicode="Ö" d="M130 786q0 177 65 324t182.5 252.5t282 163.5t364.5 58q199 0 364 -58t282.5 -163.5t182.5 -252.5t65 -324q0 -178 -65 -326.5t-182.5 -255.5t-282.5 -166.5t-364 -59.5q-200 0 -364.5 59.5t-282 166.5t-182.5 255.5t-65 326.5zM447 786q0 -121 43.5 -218t121 -165.5 t183 -105.5t229.5 -37t229.5 37t182.5 105.5t121 165.5t44 218t-44 217t-121 162.5t-182.5 101.5t-229.5 35t-229.5 -35t-183 -101.5t-121 -162.5t-43.5 -217zM1369 1669q-49 0 -88 15t-66.5 40.5t-42 58.5t-14.5 69t14.5 68.5t42 57t66.5 38.5t88 14t88.5 -14t67 -38.5 t42 -57t14.5 -68.5t-14.5 -69t-42 -58.5t-67 -40.5t-88.5 -15zM678 1669q-49 0 -88 15t-66.5 40.5t-42 58.5t-14.5 69t14.5 68.5t42 57t66.5 38.5t88 14t88.5 -14t67 -38.5t42 -57t14.5 -68.5t-14.5 -69t-42 -58.5t-67 -40.5t-88.5 -15z"></glyph><glyph glyph-name="multiply" unicode="×" d="M207 470l312 312l-312 313l164 164l312 -313l313 313l157 -157l-313 -313l313 -312l-164 -164l-313 312l-312 -312z"></glyph><glyph glyph-name="Oslash" unicode="Ø" d="M1623 1770h287l-1494 -2016h-287zM130 786q0 177 65 324t182.5 252.5t282 163.5t364.5 58q199 0 364 -58t282.5 -163.5t182.5 -252.5t65 -324q0 -178 -65 -326.5t-182.5 -255.5t-282.5 -166.5t-364 -59.5q-200 0 -364.5 59.5t-282 166.5t-182.5 255.5t-65 326.5zM447 786 q0 -121 43.5 -218t121 -165.5t183 -105.5t229.5 -37t229.5 37t182.5 105.5t121 165.5t44 218t-44 217t-121 162.5t-182.5 101.5t-229.5 35t-229.5 -35t-183 -101.5t-121 -162.5t-43.5 -217z"></glyph><glyph glyph-name="Ugrave" unicode="Ù" d="M163 1563h317v-861q0 -106 29 -188.5t86.5 -139.5t142.5 -86.5t198 -29.5q112 0 197.5 29.5t143 86.5t86.5 139.5t29 188.5v861h317v-899q0 -154 -52 -280t-151 -216t-242.5 -139t-327.5 -49t-327.5 49t-242.5 139t-151 216t-52 280v899zM634 2030l674 -189l-62 -218 l-682 159z"></glyph><glyph glyph-name="Uacute" unicode="Ú" d="M163 1563h317v-861q0 -106 29 -188.5t86.5 -139.5t142.5 -86.5t198 -29.5q112 0 197.5 29.5t143 86.5t86.5 139.5t29 188.5v861h317v-899q0 -154 -52 -280t-151 -216t-242.5 -139t-327.5 -49t-327.5 49t-242.5 139t-151 216t-52 280v899zM564 1841l674 189l70 -248 l-682 -159z"></glyph><glyph glyph-name="Ucircumflex" unicode="Û" d="M163 1563h317v-861q0 -106 29 -188.5t86.5 -139.5t142.5 -86.5t198 -29.5q112 0 197.5 29.5t143 86.5t86.5 139.5t29 188.5v861h317v-899q0 -154 -52 -280t-151 -216t-242.5 -139t-327.5 -49t-327.5 49t-242.5 139t-151 216t-52 280v899zM479 1823l457 207l457 -207 l-109 -214l-348 163l-348 -163z"></glyph><glyph glyph-name="Udieresis" unicode="Ü" d="M163 1563h317v-861q0 -106 29 -188.5t86.5 -139.5t142.5 -86.5t198 -29.5q112 0 197.5 29.5t143 86.5t86.5 139.5t29 188.5v861h317v-899q0 -154 -52 -280t-151 -216t-242.5 -139t-327.5 -49t-327.5 49t-242.5 139t-151 216t-52 280v899zM1281 1669q-49 0 -88 15 t-66.5 40.5t-42 58.5t-14.5 69t14.5 68.5t42 57t66.5 38.5t88 14t88.5 -14t67 -38.5t42 -57t14.5 -68.5t-14.5 -69t-42 -58.5t-67 -40.5t-88.5 -15zM590 1669q-49 0 -88 15t-66.5 40.5t-42 58.5t-14.5 69t14.5 68.5t42 57t66.5 38.5t88 14t88.5 -14t67 -38.5t42 -57 t14.5 -68.5t-14.5 -69t-42 -58.5t-67 -40.5t-88.5 -15z"></glyph><glyph glyph-name="Yacute" unicode="Ý" d="M701 387l-683 1176h359l481 -889l475 889h359l-674 -1174v-389h-317v387zM483 1841l674 189l70 -248l-682 -159z"></glyph><glyph glyph-name="Thorn" unicode="Þ" d="M222 1563h317v-200h478q180 0 312 -38.5t219 -110t129.5 -173t42.5 -228.5q0 -120 -42 -222.5t-128.5 -177.5t-218.5 -117t-312 -42l-480 1v-255h-317v1563zM1025 529q90 0 157.5 20t113 57t68 89.5t22.5 117.5q0 63 -22.5 113.5t-68 86t-113 55t-157.5 19.5h-486v-558 h486z"></glyph><glyph glyph-name="germandbls" unicode="ß" d="M251 958h-192v222h193q4 112 43 200t110 149t173 92.5t232 31.5q144 0 249 -36.5t173.5 -97t101 -138t32.5 -159.5q0 -98 -45 -177t-130 -157q118 0 225.5 -28t189.5 -84.5t130.5 -141.5t48.5 -200q0 -103 -42 -187t-124 -144t-203.5 -92.5t-280.5 -32.5q-54 0 -110.5 4 t-111.5 13.5t-107 24.5t-97 37l95 235q88 -41 177.5 -55.5t164.5 -14.5t135.5 12.5t103 38.5t66 66t23.5 95q0 30 -9 62t-34 61t-70 53t-116.5 39t-174 18.5t-242.5 -9.5v212q118 92 172.5 171t54.5 151q0 38 -15 72.5t-45 60.5t-75.5 41.5t-106.5 15.5q-62 0 -111 -16.5 t-83.5 -48t-53 -78t-18.5 -105.5v-1134h-296v958z"></glyph><glyph glyph-name="agrave" unicode="à" d="M129 372q0 85 37 155t111 120.5t184.5 78t257.5 27.5q109 0 229.5 -16t248.5 -49q-5 56 -34 103.5t-80.5 82t-124 53.5t-164.5 19q-50 0 -110 -6t-124 -18t-126.5 -30t-116.5 -43l-90 243q67 24 143.5 44t156.5 34.5t160 22.5t155 8q331 0 492 -169t161 -518v-514h-296 v111q-46 -27 -100.5 -51t-118.5 -42t-137.5 -28.5t-155.5 -10.5q-138 0 -242.5 30t-174.5 83t-105.5 124.5t-35.5 155.5zM441 382q0 -29 15 -55.5t48 -47t84.5 -33t124.5 -12.5q78 0 151 14t136 37t114 53t85 62v52q-68 19 -134.5 32t-127 20.5t-114 10.5t-93.5 3 q-83 0 -138 -11t-89 -29.5t-48 -43.5t-14 -52zM414 1620l111 229l686 -321l-99 -207z"></glyph><glyph glyph-name="aacute" unicode="á" d="M129 372q0 85 37 155t111 120.5t184.5 78t257.5 27.5q109 0 229.5 -16t248.5 -49q-5 56 -34 103.5t-80.5 82t-124 53.5t-164.5 19q-50 0 -110 -6t-124 -18t-126.5 -30t-116.5 -43l-90 243q67 24 143.5 44t156.5 34.5t160 22.5t155 8q331 0 492 -169t161 -518v-514h-296 v111q-46 -27 -100.5 -51t-118.5 -42t-137.5 -28.5t-155.5 -10.5q-138 0 -242.5 30t-174.5 83t-105.5 124.5t-35.5 155.5zM441 382q0 -29 15 -55.5t48 -47t84.5 -33t124.5 -12.5q78 0 151 14t136 37t114 53t85 62v52q-68 19 -134.5 32t-127 20.5t-114 10.5t-93.5 3 q-83 0 -138 -11t-89 -29.5t-48 -43.5t-14 -52zM414 1528l686 321l111 -229l-698 -299z"></glyph><glyph glyph-name="acircumflex" unicode="â" d="M129 372q0 85 37 155t111 120.5t184.5 78t257.5 27.5q109 0 229.5 -16t248.5 -49q-5 56 -34 103.5t-80.5 82t-124 53.5t-164.5 19q-50 0 -110 -6t-124 -18t-126.5 -30t-116.5 -43l-90 243q67 24 143.5 44t156.5 34.5t160 22.5t155 8q331 0 492 -169t161 -518v-514h-296 v111q-46 -27 -100.5 -51t-118.5 -42t-137.5 -28.5t-155.5 -10.5q-138 0 -242.5 30t-174.5 83t-105.5 124.5t-35.5 155.5zM441 382q0 -29 15 -55.5t48 -47t84.5 -33t124.5 -12.5q78 0 151 14t136 37t114 53t85 62v52q-68 19 -134.5 32t-127 20.5t-114 10.5t-93.5 3 q-83 0 -138 -11t-89 -29.5t-48 -43.5t-14 -52zM341 1535l471 355l471 -355l-140 -184l-331 250l-331 -250z"></glyph><glyph glyph-name="atilde" unicode="ã" d="M129 372q0 85 37 155t111 120.5t184.5 78t257.5 27.5q109 0 229.5 -16t248.5 -49q-5 56 -34 103.5t-80.5 82t-124 53.5t-164.5 19q-50 0 -110 -6t-124 -18t-126.5 -30t-116.5 -43l-90 243q67 24 143.5 44t156.5 34.5t160 22.5t155 8q331 0 492 -169t161 -518v-514h-296 v111q-46 -27 -100.5 -51t-118.5 -42t-137.5 -28.5t-155.5 -10.5q-138 0 -242.5 30t-174.5 83t-105.5 124.5t-35.5 155.5zM441 382q0 -29 15 -55.5t48 -47t84.5 -33t124.5 -12.5q78 0 151 14t136 37t114 53t85 62v52q-68 19 -134.5 32t-127 20.5t-114 10.5t-93.5 3 q-83 0 -138 -11t-89 -29.5t-48 -43.5t-14 -52zM364 1666q54 57 121 87t139 30q63 0 111 -19.5t91 -43t84 -43t90 -19.5q30 0 65.5 8.5t70.5 23.5t67.5 36t56.5 45v-250q-54 -57 -121 -87t-139 -30q-63 0 -111 19.5t-91 43t-84 43t-90 19.5q-30 0 -65.5 -8.5t-70.5 -23.5 t-67.5 -36t-56.5 -45v250z"></glyph><glyph glyph-name="adieresis" unicode="ä" d="M129 372q0 85 37 155t111 120.5t184.5 78t257.5 27.5q109 0 229.5 -16t248.5 -49q-5 56 -34 103.5t-80.5 82t-124 53.5t-164.5 19q-50 0 -110 -6t-124 -18t-126.5 -30t-116.5 -43l-90 243q67 24 143.5 44t156.5 34.5t160 22.5t155 8q331 0 492 -169t161 -518v-514h-296 v111q-46 -27 -100.5 -51t-118.5 -42t-137.5 -28.5t-155.5 -10.5q-138 0 -242.5 30t-174.5 83t-105.5 124.5t-35.5 155.5zM441 382q0 -29 15 -55.5t48 -47t84.5 -33t124.5 -12.5q78 0 151 14t136 37t114 53t85 62v52q-68 19 -134.5 32t-127 20.5t-114 10.5t-93.5 3 q-83 0 -138 -11t-89 -29.5t-48 -43.5t-14 -52zM1111 1402q-49 0 -88 15t-66.5 40.5t-42 58.5t-14.5 69t14.5 68.5t42 57t66.5 38.5t88 14t88.5 -14t67 -38.5t42 -57t14.5 -68.5t-14.5 -69t-42 -58.5t-67 -40.5t-88.5 -15zM512 1402q-49 0 -88 15t-66.5 40.5t-42 58.5 t-14.5 69t14.5 68.5t42 57t66.5 38.5t88 14t88.5 -14t67 -38.5t42 -57t14.5 -68.5t-14.5 -69t-42 -58.5t-67 -40.5t-88.5 -15z"></glyph><glyph glyph-name="aring" unicode="å" d="M129 372q0 85 37 155t111 120.5t184.5 78t257.5 27.5q109 0 229.5 -16t248.5 -49q-5 56 -34 103.5t-80.5 82t-124 53.5t-164.5 19q-50 0 -110 -6t-124 -18t-126.5 -30t-116.5 -43l-90 243q67 24 143.5 44t156.5 34.5t160 22.5t155 8q331 0 492 -169t161 -518v-514h-296 v111q-46 -27 -100.5 -51t-118.5 -42t-137.5 -28.5t-155.5 -10.5q-138 0 -242.5 30t-174.5 83t-105.5 124.5t-35.5 155.5zM441 382q0 -29 15 -55.5t48 -47t84.5 -33t124.5 -12.5q78 0 151 14t136 37t114 53t85 62v52q-68 19 -134.5 32t-127 20.5t-114 10.5t-93.5 3 q-83 0 -138 -11t-89 -29.5t-48 -43.5t-14 -52zM812 1301q-80 0 -142.5 20t-106.5 55.5t-67 83t-23 103.5q0 55 23 103t67 83.5t106.5 55.5t142.5 20q79 0 142 -20t107 -55.5t67 -83.5t23 -103q0 -56 -23 -103.5t-67 -83t-107 -55.5t-142 -20zM812 1446q69 0 106.5 33 t37.5 84q0 52 -37.5 84t-106.5 32t-106.5 -32t-37.5 -84q0 -51 37.5 -84t106.5 -33z"></glyph><glyph glyph-name="ae" unicode="æ" d="M129 371q0 85 34 155.5t104 121t177.5 78t254.5 27.5q109 0 229.5 -16t248.5 -49q-5 56 -35.5 103.5t-84 82t-127.5 53.5t-166 19q-50 0 -105.5 -6t-113.5 -18t-116 -30t-112 -43l-90 243q131 47 281 78t304 31q177 0 305 -46.5t211 -143.5q94 87 228 138.5t308 51.5 q169 0 304 -50.5t229.5 -138.5t145 -207t50.5 -255q0 -17 -0.5 -36.5t-2.5 -35.5h-1115v-3q19 -54 63.5 -98t109 -75t146 -47.5t175.5 -16.5q109 0 208.5 21t194.5 55l100 -226q-116 -56 -250.5 -83t-274.5 -27q-214 0 -379 58.5t-267 162.5q-41 -39 -100.5 -78t-138 -70.5 t-175.5 -51.5t-214 -20q-141 0 -244 30t-169.5 82.5t-98.5 124.5t-32 155zM2279 709q-16 49 -49.5 91.5t-83.5 74t-116 49.5t-147 18q-83 0 -151.5 -19t-120 -51t-86.5 -74t-51 -89h805zM443 382q0 -29 12 -55.5t41 -47t77.5 -33t121.5 -12.5q78 0 151 14t136 37t114 53 t85 62v52q-68 19 -134.5 32t-127 20.5t-114 10.5t-93.5 3q-79 0 -131 -10t-82.5 -28t-43 -43t-12.5 -55z"></glyph><glyph glyph-name="ccedilla" unicode="ç" d="M114 587q0 130 47.5 242.5t139 195t224 129.5t302.5 47q74 0 149 -9t144.5 -25.5t130.5 -39t106 -49.5l-137 -223q-97 45 -183.5 66t-175.5 21q-102 0 -183 -26.5t-137.5 -74t-86 -112t-29.5 -140.5t31.5 -140.5t89 -111t139 -73t181.5 -26.5q110 0 207.5 31t181.5 83 l137 -223q-53 -32 -115 -59.5t-132.5 -47.5t-148 -31.5t-160.5 -11.5q-169 0 -303 46t-227 127.5t-142.5 192.5t-49.5 242zM850 30v-103q170 -20 245.5 -80.5t75.5 -156.5q0 -55 -27.5 -96t-75 -68.5t-112 -41.5t-139.5 -14q-79 0 -162 15.5t-151 44.5l67 161 q66 -23 122.5 -32t106.5 -9q40 0 66.5 4.5t42.5 12t22.5 17t6.5 19.5q0 15 -13 27.5t-44 21.5t-84 14t-132 5v259h185z"></glyph><glyph glyph-name="egrave" unicode="è" d="M129 594q0 120 49 229.5t141 193.5t225.5 134t303.5 50q169 0 304.5 -50.5t230 -138.5t145 -207t50.5 -255q0 -17 -0.5 -36.5t-2.5 -35.5h-1116q19 -53 61.5 -97t106.5 -76t148 -49.5t186 -17.5t203 21.5t193 54.5l100 -226q-58 -27 -117.5 -47.5t-124 -34t-135 -20.5 t-148.5 -7q-199 0 -349 48t-251 131t-152 195t-51 241zM1264 709q-16 49 -49.5 91.5t-83.5 74t-116 49.5t-145 18q-84 0 -153 -19t-121 -51t-86.5 -74t-50.5 -89h805zM455 1620l111 229l686 -321l-99 -207z"></glyph><glyph glyph-name="eacute" unicode="é" d="M129 594q0 120 49 229.5t141 193.5t225.5 134t303.5 50q169 0 304.5 -50.5t230 -138.5t145 -207t50.5 -255q0 -17 -0.5 -36.5t-2.5 -35.5h-1116q19 -53 61.5 -97t106.5 -76t148 -49.5t186 -17.5t203 21.5t193 54.5l100 -226q-58 -27 -117.5 -47.5t-124 -34t-135 -20.5 t-148.5 -7q-199 0 -349 48t-251 131t-152 195t-51 241zM1264 709q-16 49 -49.5 91.5t-83.5 74t-116 49.5t-145 18q-84 0 -153 -19t-121 -51t-86.5 -74t-50.5 -89h805zM455 1528l686 321l111 -229l-698 -299z"></glyph><glyph glyph-name="ecircumflex" unicode="ê" d="M129 594q0 120 49 229.5t141 193.5t225.5 134t303.5 50q169 0 304.5 -50.5t230 -138.5t145 -207t50.5 -255q0 -17 -0.5 -36.5t-2.5 -35.5h-1116q19 -53 61.5 -97t106.5 -76t148 -49.5t186 -17.5t203 21.5t193 54.5l100 -226q-58 -27 -117.5 -47.5t-124 -34t-135 -20.5 t-148.5 -7q-199 0 -349 48t-251 131t-152 195t-51 241zM1264 709q-16 49 -49.5 91.5t-83.5 74t-116 49.5t-145 18q-84 0 -153 -19t-121 -51t-86.5 -74t-50.5 -89h805zM382 1535l471 355l471 -355l-140 -184l-331 250l-331 -250z"></glyph><glyph glyph-name="edieresis" unicode="ë" d="M129 594q0 120 49 229.5t141 193.5t225.5 134t303.5 50q169 0 304.5 -50.5t230 -138.5t145 -207t50.5 -255q0 -17 -0.5 -36.5t-2.5 -35.5h-1116q19 -53 61.5 -97t106.5 -76t148 -49.5t186 -17.5t203 21.5t193 54.5l100 -226q-58 -27 -117.5 -47.5t-124 -34t-135 -20.5 t-148.5 -7q-199 0 -349 48t-251 131t-152 195t-51 241zM1264 709q-16 49 -49.5 91.5t-83.5 74t-116 49.5t-145 18q-84 0 -153 -19t-121 -51t-86.5 -74t-50.5 -89h805zM1152 1402q-49 0 -88 15t-66.5 40.5t-42 58.5t-14.5 69t14.5 68.5t42 57t66.5 38.5t88 14t88.5 -14 t67 -38.5t42 -57t14.5 -68.5t-14.5 -69t-42 -58.5t-67 -40.5t-88.5 -15zM553 1402q-49 0 -88 15t-66.5 40.5t-42 58.5t-14.5 69t14.5 68.5t42 57t66.5 38.5t88 14t88.5 -14t67 -38.5t42 -57t14.5 -68.5t-14.5 -69t-42 -58.5t-67 -40.5t-88.5 -15z"></glyph><glyph glyph-name="igrave" unicode="ì" d="M61 1551l111 229l472 -233l-99 -207zM193 1180h296v-1180h-296v1180z"></glyph><glyph glyph-name="iacute" unicode="í" d="M52 1547l472 233l111 -229l-484 -211zM193 1180h296v-1180h-296v1180z"></glyph><glyph glyph-name="icircumflex" unicode="î" d="M193 1180h296v-1180h-296v1180zM-128 1535l471 355l471 -355l-140 -184l-331 250l-331 -250z"></glyph><glyph glyph-name="idieresis" unicode="ï" d="M193 1180h296v-1180h-296v1180zM642 1402q-49 0 -88 15t-66.5 40.5t-42 58.5t-14.5 69t14.5 68.5t42 57t66.5 38.5t88 14t88.5 -14t67 -38.5t42 -57t14.5 -68.5t-14.5 -69t-42 -58.5t-67 -40.5t-88.5 -15zM43 1402q-49 0 -88 15t-66.5 40.5t-42 58.5t-14.5 69t14.5 68.5 t42 57t66.5 38.5t88 14t88.5 -14t67 -38.5t42 -57t14.5 -68.5t-14.5 -69t-42 -58.5t-67 -40.5t-88.5 -15z"></glyph><glyph glyph-name="eth" unicode="ð" d="M101 542q0 111 44 202.5t125 156.5t196.5 100.5t258.5 35.5q60 0 130 -7.5t144.5 -25.5t151 -49t151.5 -77q-67 237 -301 387l-135 -166l-173 140l104 128q-55 22 -115 40.5t-126 35.5l125 231q78 -21 148 -46.5t136 -54.5l140 172l171 -141l-114 -140 q220 -146 331.5 -344t111.5 -431q0 -147 -46 -275.5t-140.5 -224.5t-239.5 -151.5t-344 -55.5q-177 0 -313.5 44t-230 120t-142 178t-48.5 218zM410 535q0 -62 29.5 -116.5t84 -95t133 -64t177.5 -23.5q101 0 181.5 25t139 71.5t94 112t46.5 146.5q-34 37 -84.5 71.5 t-115.5 61t-143 42.5t-168 16q-95 0 -165 -18.5t-116.5 -51.5t-69.5 -78t-23 -99z"></glyph><glyph glyph-name="ntilde" unicode="ñ" d="M185 1180h296v-100q118 67 225.5 94t210.5 27q135 0 250 -39.5t199 -117.5t131.5 -194.5t47.5 -269.5v-580h-295v532q0 97 -27.5 173.5t-79 129t-125 80t-164.5 27.5q-48 0 -98.5 -10t-99 -28.5t-93.5 -46t-82 -62.5v-795h-296v1180zM417 1666q54 57 121 87t139 30 q63 0 111 -19.5t91 -43t84 -43t90 -19.5q30 0 65.5 8.5t70.5 23.5t67.5 36t56.5 45v-250q-54 -57 -121 -87t-139 -30q-63 0 -111 19.5t-91 43t-84 43t-90 19.5q-30 0 -65.5 -8.5t-70.5 -23.5t-67.5 -36t-56.5 -45v250z"></glyph><glyph glyph-name="ograve" unicode="ò" d="M114 590q0 127 51.5 238t147 194t231 131t304.5 48t304.5 -48t231 -131t147 -194t51.5 -238t-51.5 -238t-147 -194t-231 -131t-304.5 -48t-304.5 48t-231 131t-147 194t-51.5 238zM425 590q0 -71 28.5 -134.5t83 -112t133 -77t178.5 -28.5t178.5 28.5t133 77t83 112 t28.5 134.5t-28.5 135t-83 112.5t-133 77t-178.5 28.5t-178.5 -28.5t-133 -77t-83 -112.5t-28.5 -135zM450 1620l111 229l686 -321l-99 -207z"></glyph><glyph glyph-name="oacute" unicode="ó" d="M114 590q0 127 51.5 238t147 194t231 131t304.5 48t304.5 -48t231 -131t147 -194t51.5 -238t-51.5 -238t-147 -194t-231 -131t-304.5 -48t-304.5 48t-231 131t-147 194t-51.5 238zM425 590q0 -71 28.5 -134.5t83 -112t133 -77t178.5 -28.5t178.5 28.5t133 77t83 112 t28.5 134.5t-28.5 135t-83 112.5t-133 77t-178.5 28.5t-178.5 -28.5t-133 -77t-83 -112.5t-28.5 -135zM450 1528l686 321l111 -229l-698 -299z"></glyph><glyph glyph-name="ocircumflex" unicode="ô" d="M114 590q0 127 51.5 238t147 194t231 131t304.5 48t304.5 -48t231 -131t147 -194t51.5 -238t-51.5 -238t-147 -194t-231 -131t-304.5 -48t-304.5 48t-231 131t-147 194t-51.5 238zM425 590q0 -71 28.5 -134.5t83 -112t133 -77t178.5 -28.5t178.5 28.5t133 77t83 112 t28.5 134.5t-28.5 135t-83 112.5t-133 77t-178.5 28.5t-178.5 -28.5t-133 -77t-83 -112.5t-28.5 -135zM377 1535l471 355l471 -355l-140 -184l-331 250l-331 -250z"></glyph><glyph glyph-name="otilde" unicode="õ" d="M114 590q0 127 51.5 238t147 194t231 131t304.5 48t304.5 -48t231 -131t147 -194t51.5 -238t-51.5 -238t-147 -194t-231 -131t-304.5 -48t-304.5 48t-231 131t-147 194t-51.5 238zM425 590q0 -71 28.5 -134.5t83 -112t133 -77t178.5 -28.5t178.5 28.5t133 77t83 112 t28.5 134.5t-28.5 135t-83 112.5t-133 77t-178.5 28.5t-178.5 -28.5t-133 -77t-83 -112.5t-28.5 -135zM400 1666q54 57 121 87t139 30q63 0 111 -19.5t91 -43t84 -43t90 -19.5q30 0 65.5 8.5t70.5 23.5t67.5 36t56.5 45v-250q-54 -57 -121 -87t-139 -30q-63 0 -111 19.5 t-91 43t-84 43t-90 19.5q-30 0 -65.5 -8.5t-70.5 -23.5t-67.5 -36t-56.5 -45v250z"></glyph><glyph glyph-name="odieresis" unicode="ö" d="M114 590q0 127 51.5 238t147 194t231 131t304.5 48t304.5 -48t231 -131t147 -194t51.5 -238t-51.5 -238t-147 -194t-231 -131t-304.5 -48t-304.5 48t-231 131t-147 194t-51.5 238zM425 590q0 -71 28.5 -134.5t83 -112t133 -77t178.5 -28.5t178.5 28.5t133 77t83 112 t28.5 134.5t-28.5 135t-83 112.5t-133 77t-178.5 28.5t-178.5 -28.5t-133 -77t-83 -112.5t-28.5 -135zM1147 1402q-49 0 -88 15t-66.5 40.5t-42 58.5t-14.5 69t14.5 68.5t42 57t66.5 38.5t88 14t88.5 -14t67 -38.5t42 -57t14.5 -68.5t-14.5 -69t-42 -58.5t-67 -40.5 t-88.5 -15zM548 1402q-49 0 -88 15t-66.5 40.5t-42 58.5t-14.5 69t14.5 68.5t42 57t66.5 38.5t88 14t88.5 -14t67 -38.5t42 -57t14.5 -68.5t-14.5 -69t-42 -58.5t-67 -40.5t-88.5 -15z"></glyph><glyph glyph-name="divide" unicode="÷" d="M372 350q0 40 16.5 75.5t47.5 62t75 41.5t99 15t99 -15t74.5 -41.5t47 -62t16.5 -75.5t-16.5 -75.5t-47 -61.5t-74.5 -41.5t-99 -15.5t-99 15.5t-75 41.5t-47.5 61.5t-16.5 75.5zM372 1237q0 40 16.5 75.5t47.5 62t75 41.5t99 15t99 -15t74.5 -41.5t47 -62t16.5 -75.5 t-16.5 -75.5t-47 -61.5t-74.5 -41.5t-99 -15.5t-99 15.5t-75 41.5t-47.5 61.5t-16.5 75.5zM137 906h917v-222h-917v222z"></glyph><glyph glyph-name="oslash" unicode="ø" d="M1323 1426h287l-1238 -1672h-287zM114 590q0 127 51.5 238t147 194t231 131t304.5 48t304.5 -48t231 -131t147 -194t51.5 -238t-51.5 -238t-147 -194t-231 -131t-304.5 -48t-304.5 48t-231 131t-147 194t-51.5 238zM425 590q0 -71 28.5 -134.5t83 -112t133 -77 t178.5 -28.5t178.5 28.5t133 77t83 112t28.5 134.5t-28.5 135t-83 112.5t-133 77t-178.5 28.5t-178.5 -28.5t-133 -77t-83 -112.5t-28.5 -135z"></glyph><glyph glyph-name="ugrave" unicode="ù" d="M185 1181h295v-576q0 -82 18 -149.5t61.5 -115.5t116 -74.5t180.5 -26.5q51 0 103.5 11t100.5 30.5t89.5 46.5t71.5 59v795h296v-1181h-296v101q-109 -65 -219 -93t-209 -28q-162 0 -277.5 39t-189 113.5t-107.5 183t-34 247.5v618zM453 1620l111 229l686 -321l-99 -207z "></glyph><glyph glyph-name="uacute" unicode="ú" d="M185 1181h295v-576q0 -82 18 -149.5t61.5 -115.5t116 -74.5t180.5 -26.5q51 0 103.5 11t100.5 30.5t89.5 46.5t71.5 59v795h296v-1181h-296v101q-109 -65 -219 -93t-209 -28q-162 0 -277.5 39t-189 113.5t-107.5 183t-34 247.5v618zM453 1528l686 321l111 -229l-698 -299 z"></glyph><glyph glyph-name="ucircumflex" unicode="û" d="M185 1181h295v-576q0 -82 18 -149.5t61.5 -115.5t116 -74.5t180.5 -26.5q51 0 103.5 11t100.5 30.5t89.5 46.5t71.5 59v795h296v-1181h-296v101q-109 -65 -219 -93t-209 -28q-162 0 -277.5 39t-189 113.5t-107.5 183t-34 247.5v618zM380 1535l471 355l471 -355l-140 -184 l-331 250l-331 -250z"></glyph><glyph glyph-name="udieresis" unicode="ü" d="M185 1181h295v-576q0 -82 18 -149.5t61.5 -115.5t116 -74.5t180.5 -26.5q51 0 103.5 11t100.5 30.5t89.5 46.5t71.5 59v795h296v-1181h-296v101q-109 -65 -219 -93t-209 -28q-162 0 -277.5 39t-189 113.5t-107.5 183t-34 247.5v618zM1150 1402q-49 0 -88 15t-66.5 40.5 t-42 58.5t-14.5 69t14.5 68.5t42 57t66.5 38.5t88 14t88.5 -14t67 -38.5t42 -57t14.5 -68.5t-14.5 -69t-42 -58.5t-67 -40.5t-88.5 -15zM551 1402q-49 0 -88 15t-66.5 40.5t-42 58.5t-14.5 69t14.5 68.5t42 57t66.5 38.5t88 14t88.5 -14t67 -38.5t42 -57t14.5 -68.5 t-14.5 -69t-42 -58.5t-67 -40.5t-88.5 -15z"></glyph><glyph glyph-name="yacute" unicode="ý" d="M326 -148q46 -30 100 -53t112.5 -38t119.5 -22.5t121 -7.5q204 0 314.5 87.5t110.5 262.5v40q-39 -27 -87.5 -49.5t-104 -38.5t-117 -24.5t-124.5 -8.5q-135 0 -241.5 39.5t-180 116t-112.5 188.5t-39 256v580h295v-498q0 -214 81.5 -315.5t257.5 -101.5 q124 0 219.5 43.5t152.5 111.5v760h296v-1045q0 -169 -48 -293.5t-139.5 -206.5t-224.5 -122.5t-302 -40.5q-165 0 -308 35t-262 95zM431 1528l686 321l111 -229l-698 -299z"></glyph><glyph glyph-name="thorn" unicode="þ" d="M473 -481h-296v2140h296v-590q39 27 92 51t114 42t126 28.5t130 10.5q150 0 275.5 -44t215.5 -124t140.5 -191.5t50.5 -246.5q0 -141 -53 -254.5t-146.5 -194t-222 -124t-278.5 -43.5q-64 0 -126.5 8t-120 22t-108 33.5t-89.5 42.5v-566zM473 371q45 -36 95 -61t102 -41 t105 -23.5t103 -7.5q102 0 181.5 27.5t134 75.5t83.5 113t29 141q0 71 -28.5 134t-82 110.5t-129 75t-169.5 27.5q-60 0 -120 -11.5t-115.5 -32.5t-104 -51t-84.5 -67v-409z"></glyph><glyph glyph-name="ydieresis" unicode="ÿ" d="M326 -148q46 -30 100 -53t112.5 -38t119.5 -22.5t121 -7.5q204 0 314.5 87.5t110.5 262.5v40q-39 -27 -87.5 -49.5t-104 -38.5t-117 -24.5t-124.5 -8.5q-135 0 -241.5 39.5t-180 116t-112.5 188.5t-39 256v580h295v-498q0 -214 81.5 -315.5t257.5 -101.5 q124 0 219.5 43.5t152.5 111.5v760h296v-1045q0 -169 -48 -293.5t-139.5 -206.5t-224.5 -122.5t-302 -40.5q-165 0 -308 35t-262 95zM1128 1402q-49 0 -88 15t-66.5 40.5t-42 58.5t-14.5 69t14.5 68.5t42 57t66.5 38.5t88 14t88.5 -14t67 -38.5t42 -57t14.5 -68.5t-14.5 -69 t-42 -58.5t-67 -40.5t-88.5 -15zM529 1402q-49 0 -88 15t-66.5 40.5t-42 58.5t-14.5 69t14.5 68.5t42 57t66.5 38.5t88 14t88.5 -14t67 -38.5t42 -57t14.5 -68.5t-14.5 -69t-42 -58.5t-67 -40.5t-88.5 -15z"></glyph><glyph glyph-name="Amacron" unicode="Ā" d="M755 1563h336l756 -1563h-333l-125 263h-913l-121 -263h-334zM1264 524l-338 710l-329 -710h667zM530 2013h793v-243h-793v243z"></glyph><glyph glyph-name="amacron" unicode="ā" d="M129 372q0 85 37 155t111 120.5t184.5 78t257.5 27.5q109 0 229.5 -16t248.5 -49q-5 56 -34 103.5t-80.5 82t-124 53.5t-164.5 19q-50 0 -110 -6t-124 -18t-126.5 -30t-116.5 -43l-90 243q67 24 143.5 44t156.5 34.5t160 22.5t155 8q331 0 492 -169t161 -518v-514h-296 v111q-46 -27 -100.5 -51t-118.5 -42t-137.5 -28.5t-155.5 -10.5q-138 0 -242.5 30t-174.5 83t-105.5 124.5t-35.5 155.5zM441 382q0 -29 15 -55.5t48 -47t84.5 -33t124.5 -12.5q78 0 151 14t136 37t114 53t85 62v52q-68 19 -134.5 32t-127 20.5t-114 10.5t-93.5 3 q-83 0 -138 -11t-89 -29.5t-48 -43.5t-14 -52zM316 1690h993v-243h-993v243z"></glyph><glyph glyph-name="Abreve" unicode="Ă" d="M755 1563h336l756 -1563h-333l-125 263h-913l-121 -263h-334zM1264 524l-338 710l-329 -710h667zM926 1640q-100 0 -179 28.5t-135.5 80t-90.5 123t-44 158.5h227q11 -86 69.5 -133.5t152.5 -47.5t152.5 47.5t69.5 133.5h227q-10 -87 -43 -158.5t-89 -123t-135.5 -80 t-181.5 -28.5z"></glyph><glyph glyph-name="abreve" unicode="ă" d="M129 372q0 85 37 155t111 120.5t184.5 78t257.5 27.5q109 0 229.5 -16t248.5 -49q-5 56 -34 103.5t-80.5 82t-124 53.5t-164.5 19q-50 0 -110 -6t-124 -18t-126.5 -30t-116.5 -43l-90 243q67 24 143.5 44t156.5 34.5t160 22.5t155 8q331 0 492 -169t161 -518v-514h-296 v111q-46 -27 -100.5 -51t-118.5 -42t-137.5 -28.5t-155.5 -10.5q-138 0 -242.5 30t-174.5 83t-105.5 124.5t-35.5 155.5zM441 382q0 -29 15 -55.5t48 -47t84.5 -33t124.5 -12.5q78 0 151 14t136 37t114 53t85 62v52q-68 19 -134.5 32t-127 20.5t-114 10.5t-93.5 3 q-83 0 -138 -11t-89 -29.5t-48 -43.5t-14 -52zM812 1327q-99 0 -177.5 28.5t-135.5 81.5t-91.5 129t-44.5 171h227q11 -95 69.5 -148t152.5 -53t152.5 53t69.5 148h227q-10 -95 -44.5 -171t-91.5 -129t-135.5 -81.5t-177.5 -28.5z"></glyph><glyph glyph-name="Aogonek" unicode="Ą" d="M755 1563h336l756 -1563h-333l-125 263h-913l-121 -263h-334zM1264 524l-338 710l-329 -710h667zM1202 -292q0 41 17.5 85.5t58.5 90.5t108 91.5t166 89.5h195l100 -65q-113 -26 -184.5 -55t-113 -59t-57 -59t-15.5 -53q0 -36 28 -60t85 -24q40 0 81 12.5t83 34.5 l77 -188q-81 -41 -158.5 -60t-151.5 -19q-80 0 -140 20.5t-99.5 53.5t-59.5 76t-20 88z"></glyph><glyph glyph-name="aogonek" unicode="ą" d="M129 372q0 85 37 155t111 120.5t184.5 78t257.5 27.5q109 0 229.5 -16t248.5 -49q-5 56 -34 103.5t-80.5 82t-124 53.5t-164.5 19q-50 0 -110 -6t-124 -18t-126.5 -30t-116.5 -43l-90 243q67 24 143.5 44t156.5 34.5t160 22.5t155 8q331 0 492 -169t161 -518v-514h-296 v111q-46 -27 -100.5 -51t-118.5 -42t-137.5 -28.5t-155.5 -10.5q-138 0 -242.5 30t-174.5 83t-105.5 124.5t-35.5 155.5zM441 382q0 -29 15 -55.5t48 -47t84.5 -33t124.5 -12.5q78 0 151 14t136 37t114 53t85 62v52q-68 19 -134.5 32t-127 20.5t-114 10.5t-93.5 3 q-83 0 -138 -11t-89 -29.5t-48 -43.5t-14 -52zM850 -292q0 41 17.5 85.5t58.5 90.5t108 91.5t166 89.5h195l100 -65q-113 -26 -184.5 -55t-113 -59t-57 -59t-15.5 -53q0 -36 28 -60t85 -24q40 0 81 12.5t83 34.5l77 -188q-81 -41 -158.5 -60t-151.5 -19q-80 0 -140 20.5 t-99.5 53.5t-59.5 76t-20 88z"></glyph><glyph glyph-name="Cacute" unicode="Ć" d="M127 791q0 167 63 311.5t182.5 251t292 167.5t390.5 61q191 0 350.5 -38.5t296.5 -117.5l-146 -240q-41 27 -94.5 48t-114 35.5t-125 22.5t-127.5 8q-152 0 -271 -37.5t-200.5 -105t-124 -161t-42.5 -205.5q0 -116 44 -213t127.5 -167.5t204 -110t272.5 -39.5 q69 0 137 10t131.5 27.5t122.5 42t110 53.5l146 -240q-128 -82 -296 -128.5t-357 -46.5q-241 0 -423 62.5t-304 172t-183.5 258t-61.5 319.5zM693 1841l674 189l70 -248l-682 -159z"></glyph><glyph glyph-name="cacute" unicode="ć" d="M114 587q0 130 47.5 242.5t139 195t224 129.5t302.5 47q74 0 149 -9t144.5 -25.5t130.5 -39t106 -49.5l-137 -223q-97 45 -183.5 66t-175.5 21q-102 0 -183 -26.5t-137.5 -74t-86 -112t-29.5 -140.5t31.5 -140.5t89 -111t139 -73t181.5 -26.5q110 0 207.5 31t181.5 83 l137 -223q-53 -32 -115 -59.5t-132.5 -47.5t-148 -31.5t-160.5 -11.5q-169 0 -303 46t-227 127.5t-142.5 192.5t-49.5 242zM419 1533l686 321l111 -229l-698 -299z"></glyph><glyph glyph-name="Ccircumflex" unicode="Ĉ" d="M127 791q0 167 63 311.5t182.5 251t292 167.5t390.5 61q191 0 350.5 -38.5t296.5 -117.5l-146 -240q-41 27 -94.5 48t-114 35.5t-125 22.5t-127.5 8q-152 0 -271 -37.5t-200.5 -105t-124 -161t-42.5 -205.5q0 -116 44 -213t127.5 -167.5t204 -110t272.5 -39.5 q69 0 137 10t131.5 27.5t122.5 42t110 53.5l146 -240q-128 -82 -296 -128.5t-357 -46.5q-241 0 -423 62.5t-304 172t-183.5 258t-61.5 319.5zM608 1823l457 207l457 -207l-109 -214l-348 163l-348 -163z"></glyph><glyph glyph-name="ccircumflex" unicode="ĉ" d="M114 587q0 130 47.5 242.5t139 195t224 129.5t302.5 47q74 0 149 -9t144.5 -25.5t130.5 -39t106 -49.5l-137 -223q-97 45 -183.5 66t-175.5 21q-102 0 -183 -26.5t-137.5 -74t-86 -112t-29.5 -140.5t31.5 -140.5t89 -111t139 -73t181.5 -26.5q110 0 207.5 31t181.5 83 l137 -223q-53 -32 -115 -59.5t-132.5 -47.5t-148 -31.5t-160.5 -11.5q-169 0 -303 46t-227 127.5t-142.5 192.5t-49.5 242zM346 1540l471 355l471 -355l-140 -184l-331 250l-331 -250z"></glyph><glyph glyph-name="Cdotaccent" unicode="Ċ" d="M127 791q0 167 63 311.5t182.5 251t292 167.5t390.5 61q191 0 350.5 -38.5t296.5 -117.5l-146 -240q-41 27 -94.5 48t-114 35.5t-125 22.5t-127.5 8q-152 0 -271 -37.5t-200.5 -105t-124 -161t-42.5 -205.5q0 -116 44 -213t127.5 -167.5t204 -110t272.5 -39.5 q69 0 137 10t131.5 27.5t122.5 42t110 53.5l146 -240q-128 -82 -296 -128.5t-357 -46.5q-241 0 -423 62.5t-304 172t-183.5 258t-61.5 319.5zM1066 1678q-50 0 -89.5 14t-68 38t-43.5 56t-15 68q0 37 15 69t43.5 56t68 37.5t89.5 13.5t90 -13.5t67.5 -37.5t42.5 -56t15 -69 q0 -36 -15 -68t-42.5 -56t-67.5 -38t-90 -14z"></glyph><glyph glyph-name="cdotaccent" unicode="ċ" d="M114 587q0 130 47.5 242.5t139 195t224 129.5t302.5 47q74 0 149 -9t144.5 -25.5t130.5 -39t106 -49.5l-137 -223q-97 45 -183.5 66t-175.5 21q-102 0 -183 -26.5t-137.5 -74t-86 -112t-29.5 -140.5t31.5 -140.5t89 -111t139 -73t181.5 -26.5q110 0 207.5 31t181.5 83 l137 -223q-53 -32 -115 -59.5t-132.5 -47.5t-148 -31.5t-160.5 -11.5q-169 0 -303 46t-227 127.5t-142.5 192.5t-49.5 242zM817 1346q-44 0 -79.5 12.5t-60.5 34t-38.5 50t-13.5 60.5q0 33 13.5 61.5t38.5 49.5t60.5 33.5t79.5 12.5q45 0 80.5 -12.5t60.5 -33.5t38.5 -49.5 t13.5 -61.5q0 -32 -13.5 -60.5t-38.5 -50t-60.5 -34t-80.5 -12.5z"></glyph><glyph glyph-name="Ccaron" unicode="Č" d="M127 791q0 167 63 311.5t182.5 251t292 167.5t390.5 61q191 0 350.5 -38.5t296.5 -117.5l-146 -240q-41 27 -94.5 48t-114 35.5t-125 22.5t-127.5 8q-152 0 -271 -37.5t-200.5 -105t-124 -161t-42.5 -205.5q0 -116 44 -213t127.5 -167.5t204 -110t272.5 -39.5 q69 0 137 10t131.5 27.5t122.5 42t110 53.5l146 -240q-128 -82 -296 -128.5t-357 -46.5q-241 0 -423 62.5t-304 172t-183.5 258t-61.5 319.5zM626 1823l112 207l327 -164l327 164l112 -207l-439 -218z"></glyph><glyph glyph-name="ccaron" unicode="č" d="M114 587q0 130 47.5 242.5t139 195t224 129.5t302.5 47q74 0 149 -9t144.5 -25.5t130.5 -39t106 -49.5l-137 -223q-97 45 -183.5 66t-175.5 21q-102 0 -183 -26.5t-137.5 -74t-86 -112t-29.5 -140.5t31.5 -140.5t89 -111t139 -73t181.5 -26.5q110 0 207.5 31t181.5 83 l137 -223q-53 -32 -115 -59.5t-132.5 -47.5t-148 -31.5t-160.5 -11.5q-169 0 -303 46t-227 127.5t-142.5 192.5t-49.5 242zM378 1684l140 175l299 -229l299 229l140 -175l-439 -334z"></glyph><glyph glyph-name="Dcaron" unicode="Ď" d="M222 1563h573q251 0 436 -54t306.5 -154.5t181 -244t59.5 -322.5q0 -170 -59 -314.5t-180 -250t-306 -165t-436 -59.5l-575 1v1563zM873 274q142 0 249 36.5t178.5 103.5t107.5 162t36 212q0 115 -36 207.5t-107.5 157t-178.5 99.5t-249 35h-334v-1013h334zM561 1823 l112 207l327 -164l327 164l112 -207l-439 -218z"></glyph><glyph glyph-name="dcaron" unicode="ď" d="M94 585q0 141 53 254.5t146.5 194t222 124t278.5 43.5q64 0 126.5 -8t120 -22t108 -33.5t89.5 -42.5v564h296v-1659h-296v111q-39 -27 -92 -51t-114 -42t-126.5 -28.5t-129.5 -10.5q-150 0 -275.5 44t-215.5 124t-140.5 191.5t-50.5 246.5zM405 585q0 -71 28.5 -134 t82 -110.5t129 -75t169.5 -27.5q60 0 120 11.5t115.5 32.5t104 51t84.5 67v409q-45 36 -95 61t-102 41t-105 23.5t-103 7.5q-102 0 -181.5 -27.5t-134 -75.5t-83.5 -113t-29 -141zM1732 1694l266 -35l-103 -567l-235 34z"></glyph><glyph glyph-name="Dcroat" unicode="Đ" d="M8 915h917v-222h-917v222zM222 1563h573q251 0 436 -54t306.5 -154.5t181 -244t59.5 -322.5q0 -170 -59 -314.5t-180 -250t-306 -165t-436 -59.5l-575 1v1563zM873 274q142 0 249 36.5t178.5 103.5t107.5 162t36 212q0 115 -36 207.5t-107.5 157t-178.5 99.5t-249 35 h-334v-1013h334z"></glyph><glyph glyph-name="dcroat" unicode="đ" d="M893 1525h817v-222h-817v222zM94 585q0 141 53 254.5t146.5 194t222 124t278.5 43.5q64 0 126.5 -8t120 -22t108 -33.5t89.5 -42.5v564h296v-1659h-296v111q-39 -27 -92 -51t-114 -42t-126.5 -28.5t-129.5 -10.5q-150 0 -275.5 44t-215.5 124t-140.5 191.5t-50.5 246.5z M405 585q0 -71 28.5 -134t82 -110.5t129 -75t169.5 -27.5q60 0 120 11.5t115.5 32.5t104 51t84.5 67v409q-45 36 -95 61t-102 41t-105 23.5t-103 7.5q-102 0 -181.5 -27.5t-134 -75.5t-83.5 -113t-29 -141z"></glyph><glyph glyph-name="Emacron" unicode="Ē" d="M222 1563h1331v-278h-1014v-312h898v-261h-898v-435h1035v-277h-1352v1563zM502 2013h793v-243h-793v243z"></glyph><glyph glyph-name="emacron" unicode="ē" d="M129 594q0 120 49 229.5t141 193.5t225.5 134t303.5 50q169 0 304.5 -50.5t230 -138.5t145 -207t50.5 -255q0 -17 -0.5 -36.5t-2.5 -35.5h-1116q19 -53 61.5 -97t106.5 -76t148 -49.5t186 -17.5t203 21.5t193 54.5l100 -226q-58 -27 -117.5 -47.5t-124 -34t-135 -20.5 t-148.5 -7q-199 0 -349 48t-251 131t-152 195t-51 241zM1264 709q-16 49 -49.5 91.5t-83.5 74t-116 49.5t-145 18q-84 0 -153 -19t-121 -51t-86.5 -74t-50.5 -89h805zM357 1690h993v-243h-993v243z"></glyph><glyph glyph-name="Ebreve" unicode="Ĕ" d="M222 1563h1331v-278h-1014v-312h898v-261h-898v-435h1035v-277h-1352v1563zM898 1640q-100 0 -179 28.5t-135.5 80t-90.5 123t-44 158.5h227q11 -86 69.5 -133.5t152.5 -47.5t152.5 47.5t69.5 133.5h227q-10 -87 -43 -158.5t-89 -123t-135.5 -80t-181.5 -28.5z"></glyph><glyph glyph-name="ebreve" unicode="ĕ" d="M129 594q0 120 49 229.5t141 193.5t225.5 134t303.5 50q169 0 304.5 -50.5t230 -138.5t145 -207t50.5 -255q0 -17 -0.5 -36.5t-2.5 -35.5h-1116q19 -53 61.5 -97t106.5 -76t148 -49.5t186 -17.5t203 21.5t193 54.5l100 -226q-58 -27 -117.5 -47.5t-124 -34t-135 -20.5 t-148.5 -7q-199 0 -349 48t-251 131t-152 195t-51 241zM1264 709q-16 49 -49.5 91.5t-83.5 74t-116 49.5t-145 18q-84 0 -153 -19t-121 -51t-86.5 -74t-50.5 -89h805zM853 1327q-99 0 -177.5 28.5t-135.5 81.5t-91.5 129t-44.5 171h227q11 -95 69.5 -148t152.5 -53t152.5 53 t69.5 148h227q-10 -95 -44.5 -171t-91.5 -129t-135.5 -81.5t-177.5 -28.5z"></glyph><glyph glyph-name="Edotaccent" unicode="Ė" d="M222 1563h1331v-278h-1014v-312h898v-261h-898v-435h1035v-277h-1352v1563zM899 1678q-50 0 -89.5 14t-68 38t-43.5 56t-15 68q0 37 15 69t43.5 56t68 37.5t89.5 13.5t90 -13.5t67.5 -37.5t42.5 -56t15 -69q0 -36 -15 -68t-42.5 -56t-67.5 -38t-90 -14z"></glyph><glyph glyph-name="edotaccent" unicode="ė" d="M129 594q0 120 49 229.5t141 193.5t225.5 134t303.5 50q169 0 304.5 -50.5t230 -138.5t145 -207t50.5 -255q0 -17 -0.5 -36.5t-2.5 -35.5h-1116q19 -53 61.5 -97t106.5 -76t148 -49.5t186 -17.5t203 21.5t193 54.5l100 -226q-58 -27 -117.5 -47.5t-124 -34t-135 -20.5 t-148.5 -7q-199 0 -349 48t-251 131t-152 195t-51 241zM1264 709q-16 49 -49.5 91.5t-83.5 74t-116 49.5t-145 18q-84 0 -153 -19t-121 -51t-86.5 -74t-50.5 -89h805zM853 1341q-44 0 -79.5 12.5t-60.5 34t-38.5 50t-13.5 60.5q0 33 13.5 61.5t38.5 49.5t60.5 33.5 t79.5 12.5q45 0 80.5 -12.5t60.5 -33.5t38.5 -49.5t13.5 -61.5q0 -32 -13.5 -60.5t-38.5 -50t-60.5 -34t-80.5 -12.5z"></glyph><glyph glyph-name="Eogonek" unicode="Ę" d="M222 1563h1331v-278h-1014v-312h898v-261h-898v-435h1035v-277h-1352v1563zM929 -292q0 41 17.5 85.5t58.5 90.5t108 91.5t166 89.5h195l100 -65q-113 -26 -184.5 -55t-113 -59t-57 -59t-15.5 -53q0 -36 28 -60t85 -24q40 0 81 12.5t83 34.5l77 -188q-81 -41 -158.5 -60 t-151.5 -19q-80 0 -140 20.5t-99.5 53.5t-59.5 76t-20 88z"></glyph><glyph glyph-name="eogonek" unicode="ę" d="M129 586q0 124 49 235.5t141 196t225.5 134t302.5 49.5q170 0 305.5 -50.5t230 -138.5t145 -207t50.5 -255q0 -17 -0.5 -36.5t-2.5 -35.5h-1116q19 -55 63.5 -99t109 -75.5t146 -48.5t176.5 -17q109 0 208.5 21t194.5 55l100 -226h-1q-211 -66 -311 -144t-100 -164 q0 -36 27.5 -63t86.5 -27q38 0 79.5 12.5t83.5 34.5l77 -188q-78 -40 -158 -59.5t-143 -19.5q-85 0 -146.5 20.5t-102 54.5t-60 78t-19.5 92q0 71 46.5 137.5t126.5 126.5h-5q-201 0 -352.5 48t-253 130.5t-152.5 193t-51 235.5zM1264 709q-16 49 -49.5 91.5t-83.5 74 t-116 49.5t-147 18q-83 0 -151.5 -19t-120 -51t-86.5 -74t-51 -89h805z"></glyph><glyph glyph-name="Ecaron" unicode="Ě" d="M222 1563h1331v-278h-1014v-312h898v-261h-898v-435h1035v-277h-1352v1563zM459 1823l112 207l327 -164l327 164l112 -207l-439 -218z"></glyph><glyph glyph-name="ecaron" unicode="ě" d="M129 594q0 120 49 229.5t141 193.5t225.5 134t303.5 50q169 0 304.5 -50.5t230 -138.5t145 -207t50.5 -255q0 -17 -0.5 -36.5t-2.5 -35.5h-1116q19 -53 61.5 -97t106.5 -76t148 -49.5t186 -17.5t203 21.5t193 54.5l100 -226q-58 -27 -117.5 -47.5t-124 -34t-135 -20.5 t-148.5 -7q-199 0 -349 48t-251 131t-152 195t-51 241zM1264 709q-16 49 -49.5 91.5t-83.5 74t-116 49.5t-145 18q-84 0 -153 -19t-121 -51t-86.5 -74t-50.5 -89h805zM414 1679l140 175l299 -229l299 229l140 -175l-439 -334z"></glyph><glyph glyph-name="Gcircumflex" unicode="Ĝ" d="M115 796q0 165 62 308.5t181 249.5t292.5 167t397.5 61q81 0 162.5 -8.5t161 -26.5t155 -45.5t143.5 -65.5l-146 -240q-41 24 -93 43.5t-111.5 33t-123 20.5t-127.5 7q-148 0 -264 -37.5t-196 -105t-122 -161.5t-42 -206q0 -116 44 -213t125 -167t196 -109.5t257 -39.5 q113 0 207 25.5t164 72.5t114 113.5t58 149.5h-546v261h831v-1l1 1q25 -120 15.5 -233.5t-52 -214t-116.5 -184.5t-177 -144.5t-234 -94t-287 -33.5q-218 0 -390.5 64t-292.5 175t-183.5 260t-63.5 318zM558 1823l457 207l457 -207l-109 -214l-348 163l-348 -163z"></glyph><glyph glyph-name="gcircumflex" unicode="ĝ" d="M370 -200q56 -20 114 -33.5t112.5 -22t104.5 -12t89 -3.5q118 0 205.5 28.5t146 76.5t87.5 111.5t29 134.5v51q-38 -26 -89 -50t-112 -42t-129.5 -29t-141.5 -11q-145 0 -268 43.5t-213 122t-140.5 188.5t-50.5 244q0 137 53 248.5t146.5 190.5t221.5 122t278 43 q64 0 127 -8t120.5 -22t108 -33.5t89.5 -42.5v85h296v-1045q0 -161 -49 -285t-143.5 -208.5t-234.5 -128t-321 -43.5q-65 0 -135 5.5t-140.5 16t-139 25t-131.5 33.5zM425 600q0 -71 28.5 -133.5t81.5 -109t128 -73t169 -26.5q61 0 121.5 11.5t116 32.5t104 51t84.5 67v389 q-45 36 -95 61t-102 41t-105 23.5t-103 7.5q-102 0 -181.5 -27t-134 -73.5t-83.5 -108.5t-29 -133zM363 1535l471 355l471 -355l-140 -184l-331 250l-331 -250z"></glyph><glyph glyph-name="Gbreve" unicode="Ğ" d="M115 796q0 165 62 308.5t181 249.5t292.5 167t397.5 61q81 0 162.5 -8.5t161 -26.5t155 -45.5t143.5 -65.5l-146 -240q-41 24 -93 43.5t-111.5 33t-123 20.5t-127.5 7q-148 0 -264 -37.5t-196 -105t-122 -161.5t-42 -206q0 -116 44 -213t125 -167t196 -109.5t257 -39.5 q113 0 207 25.5t164 72.5t114 113.5t58 149.5h-546v261h831v-1l1 1q25 -120 15.5 -233.5t-52 -214t-116.5 -184.5t-177 -144.5t-234 -94t-287 -33.5q-218 0 -390.5 64t-292.5 175t-183.5 260t-63.5 318zM1015 1640q-100 0 -179 28.5t-135.5 80t-90.5 123t-44 158.5h227 q11 -86 69.5 -133.5t152.5 -47.5t152.5 47.5t69.5 133.5h227q-10 -87 -43 -158.5t-89 -123t-135.5 -80t-181.5 -28.5z"></glyph><glyph glyph-name="gbreve" unicode="ğ" d="M370 -200q56 -20 114 -33.5t112.5 -22t104.5 -12t89 -3.5q118 0 205.5 28.5t146 76.5t87.5 111.5t29 134.5v51q-38 -26 -89 -50t-112 -42t-129.5 -29t-141.5 -11q-145 0 -268 43.5t-213 122t-140.5 188.5t-50.5 244q0 137 53 248.5t146.5 190.5t221.5 122t278 43 q64 0 127 -8t120.5 -22t108 -33.5t89.5 -42.5v85h296v-1045q0 -161 -49 -285t-143.5 -208.5t-234.5 -128t-321 -43.5q-65 0 -135 5.5t-140.5 16t-139 25t-131.5 33.5zM425 600q0 -71 28.5 -133.5t81.5 -109t128 -73t169 -26.5q61 0 121.5 11.5t116 32.5t104 51t84.5 67v389 q-45 36 -95 61t-102 41t-105 23.5t-103 7.5q-102 0 -181.5 -27t-134 -73.5t-83.5 -108.5t-29 -133zM834 1327q-99 0 -177.5 28.5t-135.5 81.5t-91.5 129t-44.5 171h227q11 -95 69.5 -148t152.5 -53t152.5 53t69.5 148h227q-10 -95 -44.5 -171t-91.5 -129t-135.5 -81.5 t-177.5 -28.5z"></glyph><glyph glyph-name="Gdotaccent" unicode="Ġ" d="M115 796q0 165 62 308.5t181 249.5t292.5 167t397.5 61q81 0 162.5 -8.5t161 -26.5t155 -45.5t143.5 -65.5l-146 -240q-41 24 -93 43.5t-111.5 33t-123 20.5t-127.5 7q-148 0 -264 -37.5t-196 -105t-122 -161.5t-42 -206q0 -116 44 -213t125 -167t196 -109.5t257 -39.5 q113 0 207 25.5t164 72.5t114 113.5t58 149.5h-546v261h831v-1l1 1q25 -120 15.5 -233.5t-52 -214t-116.5 -184.5t-177 -144.5t-234 -94t-287 -33.5q-218 0 -390.5 64t-292.5 175t-183.5 260t-63.5 318zM1016 1678q-50 0 -89.5 14t-68 38t-43.5 56t-15 68q0 37 15 69 t43.5 56t68 37.5t89.5 13.5t90 -13.5t67.5 -37.5t42.5 -56t15 -69q0 -36 -15 -68t-42.5 -56t-67.5 -38t-90 -14z"></glyph><glyph glyph-name="gdotaccent" unicode="ġ" d="M370 -200q56 -20 114 -33.5t112.5 -22t104.5 -12t89 -3.5q118 0 205.5 28.5t146 76.5t87.5 111.5t29 134.5v51q-38 -26 -89 -50t-112 -42t-129.5 -29t-141.5 -11q-145 0 -268 43.5t-213 122t-140.5 188.5t-50.5 244q0 137 53 248.5t146.5 190.5t221.5 122t278 43 q64 0 127 -8t120.5 -22t108 -33.5t89.5 -42.5v85h296v-1045q0 -161 -49 -285t-143.5 -208.5t-234.5 -128t-321 -43.5q-65 0 -135 5.5t-140.5 16t-139 25t-131.5 33.5zM425 600q0 -71 28.5 -133.5t81.5 -109t128 -73t169 -26.5q61 0 121.5 11.5t116 32.5t104 51t84.5 67v389 q-45 36 -95 61t-102 41t-105 23.5t-103 7.5q-102 0 -181.5 -27t-134 -73.5t-83.5 -108.5t-29 -133zM834 1341q-44 0 -79.5 12.5t-60.5 34t-38.5 50t-13.5 60.5q0 33 13.5 61.5t38.5 49.5t60.5 33.5t79.5 12.5q45 0 80.5 -12.5t60.5 -33.5t38.5 -49.5t13.5 -61.5 q0 -32 -13.5 -60.5t-38.5 -50t-60.5 -34t-80.5 -12.5z"></glyph><glyph glyph-name="Gcommaaccent" unicode="Ģ" d="M115 796q0 165 62 308.5t181 249.5t292.5 167t397.5 61q81 0 162.5 -8.5t161 -26.5t155 -45.5t143.5 -65.5l-146 -240q-41 24 -93 43.5t-111.5 33t-123 20.5t-127.5 7q-148 0 -264 -37.5t-196 -105t-122 -161.5t-42 -206q0 -116 44 -213t125 -167t196 -109.5t257 -39.5 q113 0 207 25.5t164 72.5t114 113.5t58 149.5h-546v261h831v-1l1 1q25 -120 15.5 -233.5t-52 -214t-116.5 -184.5t-177 -144.5t-234 -94t-287 -33.5q-218 0 -390.5 64t-292.5 175t-183.5 260t-63.5 318zM820 -205q0 66 50.5 102t143.5 36q47 0 85 -10.5t65 -31.5t41.5 -54 t14.5 -78q0 -85 -72.5 -158t-209.5 -131l-89 112q25 14 44 26t34 24t26.5 24.5t20.5 28.5q-42 0 -71 10t-47.5 25.5t-27 35t-8.5 39.5z"></glyph><glyph glyph-name="gcommaaccent" unicode="ģ" d="M370 -200q56 -20 114 -33.5t112.5 -22t104.5 -12t89 -3.5q118 0 205.5 28.5t146 76.5t87.5 111.5t29 134.5v51q-38 -26 -89 -50t-112 -42t-129.5 -29t-141.5 -11q-145 0 -268 43.5t-213 122t-140.5 188.5t-50.5 244q0 137 53 248.5t146.5 190.5t221.5 122t278 43 q64 0 127 -8t120.5 -22t108 -33.5t89.5 -42.5v85h296v-1045q0 -161 -49 -285t-143.5 -208.5t-234.5 -128t-321 -43.5q-65 0 -135 5.5t-140.5 16t-139 25t-131.5 33.5zM425 600q0 -71 28.5 -133.5t81.5 -109t128 -73t169 -26.5q61 0 121.5 11.5t116 32.5t104 51t84.5 67v389 q-45 36 -95 61t-102 41t-105 23.5t-103 7.5q-102 0 -181.5 -27t-134 -73.5t-83.5 -108.5t-29 -133zM651 1591q0 66 50.5 102t143.5 36q47 0 85 -10.5t65 -31.5t41.5 -54t14.5 -78q0 -85 -72.5 -158t-209.5 -131l-89 112q25 14 44 26t34 24t26.5 24.5t20.5 28.5q-42 0 -71 10 t-47.5 25.5t-27 35t-8.5 39.5z"></glyph><glyph glyph-name="Hcircumflex" unicode="Ĥ" d="M221 1563h317v-408h972v408h318v-1563h-318v884h-972v-884h-317v1563zM567 1823l457 207l457 -207l-109 -214l-348 163l-348 -163z"></glyph><glyph glyph-name="hcircumflex" unicode="ĥ" d="M185 1658h296v-568q93 51 207.5 81t240.5 30q146 0 262.5 -43t197.5 -123.5t124.5 -195.5t43.5 -259v-580h-295v568q0 84 -27 153.5t-79 119.5t-126.5 77.5t-168.5 27.5q-113 0 -210 -36t-170 -91v-819h-296v1658zM404 1823l457 207l457 -207l-109 -214l-348 163 l-348 -163z"></glyph><glyph glyph-name="Hbar" unicode="Ħ" d="M221 912h-166v243h166v408h317v-408h972v408h318v-408h143v-243h-143v-912h-318v443h-972v-443h-317v912zM1510 714v198h-972v-198h972z"></glyph><glyph glyph-name="hbar" unicode="ħ" d="M19 1497h681v-214h-681v214zM185 1658h296v-568q93 51 207.5 81t240.5 30q146 0 262.5 -43t197.5 -123.5t124.5 -195.5t43.5 -259v-580h-295v568q0 84 -27 153.5t-79 119.5t-126.5 77.5t-168.5 27.5q-113 0 -210 -36t-170 -91v-819h-296v1658z"></glyph><glyph glyph-name="Itilde" unicode="Ĩ" d="M182 1563h319v-1563h-319v1563zM-106 1913q54 57 121 87t139 30q63 0 111 -19.5t91 -43t84 -43t90 -19.5q30 0 65.5 8.5t70.5 23.5t67.5 36t56.5 45v-240q-54 -57 -121 -87t-139 -30q-63 0 -111 19.5t-91 43t-84 43t-90 19.5q-30 0 -65.5 -8.5t-70.5 -23.5t-67.5 -36 t-56.5 -45v240z"></glyph><glyph glyph-name="itilde" unicode="ĩ" d="M111 1677q8 54 42 80.5t79 26.5q32 0 56 -9.5t43.5 -23t35.5 -30t32.5 -30t35 -23t42.5 -9.5q12 0 29.5 4.5t35 15.5t31.5 31t20 52v-255q-8 -42 -37 -72.5t-84 -30.5q-47 0 -78 19.5t-55.5 43t-48.5 43t-57 19.5q-46 0 -80 -27.5t-42 -75.5v251zM193 1180h296v-1180 h-296v1180z"></glyph><glyph glyph-name="Imacron" unicode="Ī" d="M182 1563h319v-1563h-319v1563zM-55 2013h793v-243h-793v243z"></glyph><glyph glyph-name="imacron" unicode="ī" d="M85 1690h513v-243h-513v243zM193 1180h296v-1180h-296v1180z"></glyph><glyph glyph-name="Ibreve" unicode="Ĭ" d="M182 1563h319v-1563h-319v1563zM341 1640q-100 0 -179 28.5t-135.5 80t-90.5 123t-44 158.5h227q11 -86 69.5 -133.5t152.5 -47.5t152.5 47.5t69.5 133.5h227q-10 -87 -43 -158.5t-89 -123t-135.5 -80t-181.5 -28.5z"></glyph><glyph glyph-name="ibreve" unicode="ĭ" d="M193 1180h296v-1180h-296v1180zM343 1327q-99 0 -177.5 28.5t-135.5 81.5t-91.5 129t-44.5 171h227q11 -95 69.5 -148t152.5 -53t152.5 53t69.5 148h227q-10 -95 -44.5 -171t-91.5 -129t-135.5 -81.5t-177.5 -28.5z"></glyph><glyph glyph-name="Iogonek" unicode="Į" d="M401 65l100 -65q-96 -25 -157 -53.5t-95.5 -58t-47.5 -57.5t-13 -52q0 -38 26.5 -63.5t87.5 -25.5q42 0 83 12.5t83 34.5l77 -188q-76 -38 -154 -58.5t-157 -20.5q-80 0 -140 20t-100.5 53.5t-60.5 78t-20 92.5q0 41 16 84t52.5 87.5t96.5 89.5t148 90h175zM182 1563h319 v-1563h-319v1563z"></glyph><glyph glyph-name="iogonek" unicode="į" d="M341 1341q-44 0 -79.5 12.5t-60.5 34t-38.5 50t-13.5 60.5q0 33 13.5 61.5t38.5 49.5t60.5 33.5t79.5 12.5q45 0 80.5 -12.5t60.5 -33.5t38.5 -49.5t13.5 -61.5q0 -32 -13.5 -60.5t-38.5 -50t-60.5 -34t-80.5 -12.5zM193 1180h296v-1180q-98 -26 -159 -54.5t-95 -58 t-46.5 -58t-12.5 -52.5q0 -36 26.5 -61.5t90.5 -25.5q38 0 79.5 12.5t83.5 34.5l77 -188q-78 -40 -158 -59.5t-143 -19.5q-87 0 -150 20.5t-103 54.5t-59 77t-19 87q0 42 14.5 85t48.5 86.5t90 87.5t139 89v1123z"></glyph><glyph glyph-name="Idotaccent" unicode="İ" d="M182 1563h319v-1563h-319v1563zM342 1678q-50 0 -89.5 14t-68 38t-43.5 56t-15 68q0 37 15 69t43.5 56t68 37.5t89.5 13.5t90 -13.5t67.5 -37.5t42.5 -56t15 -69q0 -36 -15 -68t-42.5 -56t-67.5 -38t-90 -14z"></glyph><glyph glyph-name="dotlessi" unicode="ı" d="M193 1180h296v-1180h-296v1180z"></glyph><glyph glyph-name="IJ" unicode="Ĳ" d="M182 1563h319v-1563h-319v1563zM604 -259q69 42 118.5 88t81.5 101.5t47 124t15 155.5v1353h317v-1296q0 -104 -9 -189.5t-29.5 -157t-55 -131.5t-85 -114t-119 -104t-158.5 -101z"></glyph><glyph glyph-name="ij" unicode="ĳ" d="M341 1341q-44 0 -79.5 12.5t-60.5 34t-38.5 50t-13.5 60.5q0 33 13.5 61.5t38.5 49.5t60.5 33.5t79.5 12.5q45 0 80.5 -12.5t60.5 -33.5t38.5 -49.5t13.5 -61.5q0 -32 -13.5 -60.5t-38.5 -50t-60.5 -34t-80.5 -12.5zM193 1180h296v-1180h-296v1180zM1024 1341 q-44 0 -79.5 12.5t-60.5 34t-38.5 50t-13.5 60.5q0 33 13.5 61.5t38.5 49.5t60.5 33.5t79.5 12.5q45 0 80.5 -12.5t60.5 -33.5t38.5 -49.5t13.5 -61.5q0 -32 -13.5 -60.5t-38.5 -50t-60.5 -34t-80.5 -12.5zM876 1180h296v-1003q0 -88 -7.5 -159.5t-25 -132.5t-47 -114 t-73.5 -102t-105 -97.5t-141 -101.5l-109 251q62 46 103 91t65 94t34 105t10 123v1046z"></glyph><glyph glyph-name="Jcircumflex" unicode="Ĵ" d="M-79 -259q69 42 118.5 88t81.5 101.5t47 124t15 155.5v1353h317v-1296q0 -104 -9 -189.5t-29.5 -157t-55 -131.5t-85 -114t-119 -104t-158.5 -101zM-116 1823l457 207l457 -207l-109 -214l-348 163l-348 -163z"></glyph><glyph glyph-name="jcircumflex" unicode="ĵ" d="M193 1180h296v-1003q0 -88 -7.5 -159.5t-25 -132.5t-47 -114t-73.5 -102t-105 -97.5t-141 -101.5l-109 251q62 46 103 91t65 94t34 105t10 123v1046zM-130 1535l471 355l471 -355l-140 -184l-331 250l-331 -250z"></glyph><glyph glyph-name="Kcommaaccent" unicode="Ķ" d="M222 1563h317v-809l825 809h406l-770 -746l770 -817h-422l-576 596l-233 -225v-371h-317v1563zM648 -205q0 66 50.5 102t143.5 36q47 0 85 -10.5t65 -31.5t41.5 -54t14.5 -78q0 -85 -72.5 -158t-209.5 -131l-89 112q25 14 44 26t34 24t26.5 24.5t20.5 28.5q-42 0 -71 10 t-47.5 25.5t-27 35t-8.5 39.5z"></glyph><glyph glyph-name="kcommaaccent" unicode="ķ" d="M186 1659h296v-980l552 501h453l-617 -552l656 -628h-444l-439 425l-161 -144v-281h-296v1659zM545 -205q0 66 50.5 102t143.5 36q47 0 85 -10.5t65 -31.5t41.5 -54t14.5 -78q0 -85 -72.5 -158t-209.5 -131l-89 112q25 14 44 26t34 24t26.5 24.5t20.5 28.5q-42 0 -71 10 t-47.5 25.5t-27 35t-8.5 39.5z"></glyph><glyph glyph-name="kgreenlandic" unicode="ĸ" d="M186 1180h296v-501l552 501h453l-617 -552l656 -628h-444l-439 425l-161 -144v-281h-296v1180z"></glyph><glyph glyph-name="Lacute" unicode="Ĺ" d="M222 1563h317v-1285h909v-278h-1226v1563zM524 1841l674 189l70 -248l-682 -159z"></glyph><glyph glyph-name="lacute" unicode="ĺ" d="M4 1788l576 232l111 -229l-588 -210zM193 1510h296v-1510h-296v1510z"></glyph><glyph glyph-name="Lcommaaccent" unicode="Ļ" d="M222 1563h317v-1285h909v-278h-1226v1563zM562 -205q0 66 50.5 102t143.5 36q47 0 85 -10.5t65 -31.5t41.5 -54t14.5 -78q0 -85 -72.5 -158t-209.5 -131l-89 112q25 14 44 26t34 24t26.5 24.5t20.5 28.5q-42 0 -71 10t-47.5 25.5t-27 35t-8.5 39.5z"></glyph><glyph glyph-name="lcommaaccent" unicode="ļ" d="M193 1659h296v-1659h-296v1659zM146 -205q0 66 50.5 102t143.5 36q47 0 85 -10.5t65 -31.5t41.5 -54t14.5 -78q0 -85 -72.5 -158t-209.5 -131l-89 112q25 14 44 26t34 24t26.5 24.5t20.5 28.5q-42 0 -71 10t-47.5 25.5t-27 35t-8.5 39.5z"></glyph><glyph glyph-name="Lcaron" unicode="Ľ" d="M222 1563h317v-1285h909v-278h-1226v1563zM812 1694l266 -35l-103 -567l-235 34z"></glyph><glyph glyph-name="lcaron" unicode="ľ" d="M193 1659h296v-1659h-296v1659zM682 1694l266 -35l-103 -567l-235 34z"></glyph><glyph glyph-name="Ldot" unicode="Ŀ" d="M222 1563h317v-1285h909v-278h-1226v1563zM954 1052q0 40 16.5 75.5t47.5 62t75 41.5t99 15t99 -15t74.5 -41.5t47 -62t16.5 -75.5t-16.5 -75.5t-47 -61.5t-74.5 -41.5t-99 -15.5t-99 15.5t-75 41.5t-47.5 61.5t-16.5 75.5z"></glyph><glyph glyph-name="ldot" unicode="ŀ" d="M193 1659h296v-1659h-296v1659zM874 818q0 40 16.5 75.5t47.5 62t75 41.5t99 15t99 -15t74.5 -41.5t47 -62t16.5 -75.5t-16.5 -75.5t-47 -61.5t-74.5 -41.5t-99 -15.5t-99 15.5t-75 41.5t-47.5 61.5t-16.5 75.5z"></glyph><glyph glyph-name="Lslash" unicode="Ł" d="M-64 718l981 447l92 -202l-981 -447zM222 1563h317v-1285h909v-278h-1226v1563z"></glyph><glyph glyph-name="lslash" unicode="ł" d="M40 759l854 384l89 -203l-854 -385zM363 1659h296v-1659h-296v1659z"></glyph><glyph glyph-name="Nacute" unicode="Ń" d="M220 1563h317l974 -510v510h317v-1563h-317v717l-974 507v-1224h-317v1563zM652 1841l674 189l70 -248l-682 -159z"></glyph><glyph glyph-name="nacute" unicode="ń" d="M185 1180h296v-100q118 67 225.5 94t210.5 27q135 0 250 -39.5t199 -117.5t131.5 -194.5t47.5 -269.5v-580h-295v532q0 97 -27.5 173.5t-79 129t-125 80t-164.5 27.5q-48 0 -98.5 -10t-99 -28.5t-93.5 -46t-82 -62.5v-795h-296v1180zM467 1528l686 321l111 -229 l-698 -299z"></glyph><glyph glyph-name="Ncommaaccent" unicode="Ņ" d="M220 1563h317l974 -510v510h317v-1563h-317v717l-974 507v-1224h-317v1563zM820 -205q0 66 50.5 102t143.5 36q47 0 85 -10.5t65 -31.5t41.5 -54t14.5 -78q0 -85 -72.5 -158t-209.5 -131l-89 112q25 14 44 26t34 24t26.5 24.5t20.5 28.5q-42 0 -71 10t-47.5 25.5t-27 35 t-8.5 39.5z"></glyph><glyph glyph-name="ncommaaccent" unicode="ņ" d="M185 1180h296v-100q118 67 225.5 94t210.5 27q135 0 250 -39.5t199 -117.5t131.5 -194.5t47.5 -269.5v-580h-295v532q0 97 -27.5 173.5t-79 129t-125 80t-164.5 27.5q-48 0 -98.5 -10t-99 -28.5t-93.5 -46t-82 -62.5v-795h-296v1180zM657 -205q0 66 50.5 102t143.5 36 q47 0 85 -10.5t65 -31.5t41.5 -54t14.5 -78q0 -85 -72.5 -158t-209.5 -131l-89 112q25 14 44 26t34 24t26.5 24.5t20.5 28.5q-42 0 -71 10t-47.5 25.5t-27 35t-8.5 39.5z"></glyph><glyph glyph-name="Ncaron" unicode="Ň" d="M220 1563h317l974 -510v510h317v-1563h-317v717l-974 507v-1224h-317v1563zM585 1823l112 207l327 -164l327 164l112 -207l-439 -218z"></glyph><glyph glyph-name="ncaron" unicode="ň" d="M185 1180h296v-100q118 67 225.5 94t210.5 27q135 0 250 -39.5t199 -117.5t131.5 -194.5t47.5 -269.5v-580h-295v532q0 97 -27.5 173.5t-79 129t-125 80t-164.5 27.5q-48 0 -98.5 -10t-99 -28.5t-93.5 -46t-82 -62.5v-795h-296v1180zM426 1679l140 175l299 -229l299 229 l140 -175l-439 -334z"></glyph><glyph glyph-name="Eng" unicode="Ŋ" d="M220 1563h317l974 -510v510h317v-1292q0 -104 -9 -190t-30 -157.5t-55.5 -132.5t-85.5 -115t-120 -104.5t-159 -101.5l-133 251q69 42 120.5 92t86 110t51.5 132t17 159v503l-974 507v-1224h-317v1563z"></glyph><glyph glyph-name="eng" unicode="ŋ" d="M185 1180h296v-100q118 67 225.5 94t210.5 27q135 0 250 -39.5t198.5 -117.5t131 -194.5t48.5 -269.5l1 -268v-135q0 -88 -7.5 -159.5t-25 -132.5t-47 -114t-73.5 -102t-105 -97.5t-141 -101.5l-109 251q62 46 103 91t65 94t34 105t10 123v398q0 97 -27.5 173.5t-79 129 t-125 80t-164.5 27.5q-48 0 -98.5 -10t-99 -28.5t-93.5 -46t-82 -62.5v-795h-296v1180z"></glyph><glyph glyph-name="Omacron" unicode="Ō" d="M130 786q0 177 65 324t182.5 252.5t282 163.5t364.5 58q199 0 364 -58t282.5 -163.5t182.5 -252.5t65 -324q0 -178 -65 -326.5t-182.5 -255.5t-282.5 -166.5t-364 -59.5q-200 0 -364.5 59.5t-282 166.5t-182.5 255.5t-65 326.5zM447 786q0 -121 43.5 -218t121 -165.5 t183 -105.5t229.5 -37t229.5 37t182.5 105.5t121 165.5t44 218t-44 217t-121 162.5t-182.5 101.5t-229.5 35t-229.5 -35t-183 -101.5t-121 -162.5t-43.5 -217zM628 2013h793v-243h-793v243z"></glyph><glyph glyph-name="omacron" unicode="ō" d="M114 590q0 127 51.5 238t147 194t231 131t304.5 48t304.5 -48t231 -131t147 -194t51.5 -238t-51.5 -238t-147 -194t-231 -131t-304.5 -48t-304.5 48t-231 131t-147 194t-51.5 238zM425 590q0 -71 28.5 -134.5t83 -112t133 -77t178.5 -28.5t178.5 28.5t133 77t83 112 t28.5 134.5t-28.5 135t-83 112.5t-133 77t-178.5 28.5t-178.5 -28.5t-133 -77t-83 -112.5t-28.5 -135zM352 1690h993v-243h-993v243z"></glyph><glyph glyph-name="Obreve" unicode="Ŏ" d="M130 786q0 177 65 324t182.5 252.5t282 163.5t364.5 58q199 0 364 -58t282.5 -163.5t182.5 -252.5t65 -324q0 -178 -65 -326.5t-182.5 -255.5t-282.5 -166.5t-364 -59.5q-200 0 -364.5 59.5t-282 166.5t-182.5 255.5t-65 326.5zM447 786q0 -121 43.5 -218t121 -165.5 t183 -105.5t229.5 -37t229.5 37t182.5 105.5t121 165.5t44 218t-44 217t-121 162.5t-182.5 101.5t-229.5 35t-229.5 -35t-183 -101.5t-121 -162.5t-43.5 -217zM1024 1640q-100 0 -179 28.5t-135.5 80t-90.5 123t-44 158.5h227q11 -86 69.5 -133.5t152.5 -47.5t152.5 47.5 t69.5 133.5h227q-10 -87 -43 -158.5t-89 -123t-135.5 -80t-181.5 -28.5z"></glyph><glyph glyph-name="obreve" unicode="ŏ" d="M114 590q0 127 51.5 238t147 194t231 131t304.5 48t304.5 -48t231 -131t147 -194t51.5 -238t-51.5 -238t-147 -194t-231 -131t-304.5 -48t-304.5 48t-231 131t-147 194t-51.5 238zM425 590q0 -71 28.5 -134.5t83 -112t133 -77t178.5 -28.5t178.5 28.5t133 77t83 112 t28.5 134.5t-28.5 135t-83 112.5t-133 77t-178.5 28.5t-178.5 -28.5t-133 -77t-83 -112.5t-28.5 -135zM848 1327q-99 0 -177.5 28.5t-135.5 81.5t-91.5 129t-44.5 171h227q11 -95 69.5 -148t152.5 -53t152.5 53t69.5 148h227q-10 -95 -44.5 -171t-91.5 -129t-135.5 -81.5 t-177.5 -28.5z"></glyph><glyph glyph-name="Ohungarumlaut" unicode="Ő" d="M130 786q0 177 65 324t182.5 252.5t282 163.5t364.5 58q199 0 364 -58t282.5 -163.5t182.5 -252.5t65 -324q0 -178 -65 -326.5t-182.5 -255.5t-282.5 -166.5t-364 -59.5q-200 0 -364.5 59.5t-282 166.5t-182.5 255.5t-65 326.5zM447 786q0 -121 43.5 -218t121 -165.5 t183 -105.5t229.5 -37t229.5 37t182.5 105.5t121 165.5t44 218t-44 217t-121 162.5t-182.5 101.5t-229.5 35t-229.5 -35t-183 -101.5t-121 -162.5t-43.5 -217zM1186 1722l387 308l155 -194l-424 -285zM592 1722l387 308l155 -194l-424 -285z"></glyph><glyph glyph-name="ohungarumlaut" unicode="ő" d="M114 590q0 127 51.5 238t147 194t231 131t304.5 48t304.5 -48t231 -131t147 -194t51.5 -238t-51.5 -238t-147 -194t-231 -131t-304.5 -48t-304.5 48t-231 131t-147 194t-51.5 238zM425 590q0 -71 28.5 -134.5t83 -112t133 -77t178.5 -28.5t178.5 28.5t133 77t83 112 t28.5 134.5t-28.5 135t-83 112.5t-133 77t-178.5 28.5t-178.5 -28.5t-133 -77t-83 -112.5t-28.5 -135zM429 1453l321 466l187 -124l-336 -459zM980 1452l321 466l187 -124l-336 -459z"></glyph><glyph glyph-name="OE" unicode="Œ" d="M130 786q0 177 65 324t182.5 252.5t282 163.5t364.5 58q199 0 364 -58t282.5 -163.5t182.5 -252.5t65 -324q0 -178 -65 -326.5t-182.5 -255.5t-282.5 -166.5t-364 -59.5q-200 0 -364.5 59.5t-282 166.5t-182.5 255.5t-65 326.5zM447 786q0 -121 43.5 -218t121 -165.5 t183 -105.5t229.5 -37t229.5 37t182.5 105.5t121 165.5t44 218t-44 217t-121 162.5t-182.5 101.5t-229.5 35t-229.5 -35t-183 -101.5t-121 -162.5t-43.5 -217zM1601 1563h1331v-278h-1014v-312h898v-261h-898v-435h1035v-277h-1352v1563z"></glyph><glyph glyph-name="oe" unicode="œ" d="M114 590q0 127 51.5 238t147 194t231 131t304.5 48t304.5 -48t231 -131t147 -194t51.5 -238t-51.5 -238t-147 -194t-231 -131t-304.5 -48t-304.5 48t-231 131t-147 194t-51.5 238zM425 590q0 -71 28.5 -134.5t83 -112t133 -77t178.5 -28.5t178.5 28.5t133 77t83 112 t28.5 134.5t-28.5 135t-83 112.5t-133 77t-178.5 28.5t-178.5 -28.5t-133 -77t-83 -112.5t-28.5 -135zM1271 594q0 120 49 229.5t141 193.5t225.5 134t303.5 50q169 0 304.5 -50.5t230 -138.5t145 -207t50.5 -255q0 -17 -0.5 -36.5t-2.5 -35.5h-1116q19 -53 61.5 -97 t106.5 -76t148 -49.5t186 -17.5t203 21.5t193 54.5l100 -226q-58 -27 -117.5 -47.5t-124 -34t-135 -20.5t-148.5 -7q-199 0 -349 48t-251 131t-152 195t-51 241zM2406 709q-16 49 -49.5 91.5t-83.5 74t-116 49.5t-145 18q-84 0 -153 -19t-121 -51t-86.5 -74t-50.5 -89h805z "></glyph><glyph glyph-name="Racute" unicode="Ŕ" d="M222 1563h795q180 0 312 -37.5t219 -108.5t129.5 -173t42.5 -231q0 -87 -21 -165.5t-64.5 -144.5t-109.5 -117.5t-155 -85.5l340 -500h-388l-294 444h-9l-480 1v-445h-317v1563zM1025 719q90 0 157.5 21t113 59t68 92.5t22.5 121.5q0 131 -90 202.5t-271 71.5h-486v-568 h486zM599 1841l674 189l70 -248l-682 -159z"></glyph><glyph glyph-name="racute" unicode="ŕ" d="M185 1180h296v-170q98 73 207 126t217 81l87 -271q-171 -17 -300.5 -76.5t-210.5 -167.5v-702h-296v1180zM190 1528l686 321l111 -229l-698 -299z"></glyph><glyph glyph-name="Rcommaaccent" unicode="Ŗ" d="M222 1563h795q180 0 312 -37.5t219 -108.5t129.5 -173t42.5 -231q0 -87 -21 -165.5t-64.5 -144.5t-109.5 -117.5t-155 -85.5l340 -500h-388l-294 444h-9l-480 1v-445h-317v1563zM1025 719q90 0 157.5 21t113 59t68 92.5t22.5 121.5q0 131 -90 202.5t-271 71.5h-486v-568 h486zM732 -205q0 66 50.5 102t143.5 36q47 0 85 -10.5t65 -31.5t41.5 -54t14.5 -78q0 -85 -72.5 -158t-209.5 -131l-89 112q25 14 44 26t34 24t26.5 24.5t20.5 28.5q-42 0 -71 10t-47.5 25.5t-27 35t-8.5 39.5z"></glyph><glyph glyph-name="rcommaaccent" unicode="ŗ" d="M185 1180h296v-170q98 73 207 126t217 81l87 -271q-171 -17 -300.5 -76.5t-210.5 -167.5v-702h-296v1180zM140 -205q0 66 50.5 102t143.5 36q47 0 85 -10.5t65 -31.5t41.5 -54t14.5 -78q0 -85 -72.5 -158t-209.5 -131l-89 112q25 14 44 26t34 24t26.5 24.5t20.5 28.5 q-42 0 -71 10t-47.5 25.5t-27 35t-8.5 39.5z"></glyph><glyph glyph-name="Rcaron" unicode="Ř" d="M222 1563h795q180 0 312 -37.5t219 -108.5t129.5 -173t42.5 -231q0 -87 -21 -165.5t-64.5 -144.5t-109.5 -117.5t-155 -85.5l340 -500h-388l-294 444h-9l-480 1v-445h-317v1563zM1025 719q90 0 157.5 21t113 59t68 92.5t22.5 121.5q0 131 -90 202.5t-271 71.5h-486v-568 h486zM532 1823l112 207l327 -164l327 164l112 -207l-439 -218z"></glyph><glyph glyph-name="rcaron" unicode="ř" d="M185 1180h296v-170q98 73 207 126t217 81l87 -271q-171 -17 -300.5 -76.5t-210.5 -167.5v-702h-296v1180zM150 1679l140 175l299 -229l299 229l140 -175l-439 -334z"></glyph><glyph glyph-name="Sacute" unicode="Ś" d="M295 465q85 -48 172.5 -86.5t181.5 -65t197.5 -40.5t220.5 -14q141 0 240 18.5t161.5 51t91 77.5t28.5 98q0 85 -71 134.5t-219 49.5q-65 0 -137 -8.5t-145.5 -18.5t-145 -18.5t-134.5 -8.5q-105 0 -201.5 27t-171 81t-118.5 135t-44 189q0 64 17.5 127t56 120.5 t99.5 107t147.5 85.5t200 56.5t258.5 20.5q105 0 211 -11.5t206.5 -32.5t193.5 -50.5t173 -65.5l-139 -256q-66 29 -142 53.5t-159 42.5t-171.5 28.5t-180.5 10.5q-131 0 -215.5 -19t-134.5 -48.5t-69.5 -66t-19.5 -72.5q0 -70 63 -114.5t192 -44.5q52 0 119.5 7.5t142 16.5 t152 16.5t150.5 7.5q138 0 244.5 -31t178.5 -88.5t109 -139t37 -182.5q0 -135 -62.5 -240.5t-178 -178t-278.5 -110t-363 -37.5q-132 0 -258 16.5t-241.5 47t-220 73t-193.5 93.5zM651 1841l674 189l70 -248l-682 -159z"></glyph><glyph glyph-name="sacute" unicode="ś" d="M232 362q120 -72 264 -106t295 -34q102 0 170 14t109 36t58 50t17 57q0 42 -36.5 72t-120.5 30q-39 0 -84 -5l-94.5 -10.5t-103 -10.5t-108.5 -5q-120 0 -204.5 26t-137.5 71t-77 106.5t-24 132.5q0 90 42 166t120 131.5t188.5 86.5t246.5 31q71 0 148.5 -8.5 t152.5 -22.5t144 -32.5t122 -39.5l-93 -230q-113 42 -225.5 66.5t-231.5 24.5q-83 0 -140.5 -12.5t-93.5 -33t-52.5 -47t-16.5 -55.5q0 -21 8.5 -38t28 -29.5t51 -19t77.5 -6.5q42 0 89 5t98 10.5t105.5 10.5t111.5 5q106 0 185.5 -25t131.5 -70t78 -106t26 -133 q0 -93 -43 -173t-128 -138.5t-211.5 -91.5t-292.5 -33q-102 0 -197 12.5t-181 34t-161.5 50.5t-137.5 62zM382 1528l686 321l111 -229l-698 -299z"></glyph><glyph glyph-name="Scircumflex" unicode="Ŝ" d="M295 465q85 -48 172.5 -86.5t181.5 -65t197.5 -40.5t220.5 -14q141 0 240 18.5t161.5 51t91 77.5t28.5 98q0 85 -71 134.5t-219 49.5q-65 0 -137 -8.5t-145.5 -18.5t-145 -18.5t-134.5 -8.5q-105 0 -201.5 27t-171 81t-118.5 135t-44 189q0 64 17.5 127t56 120.5 t99.5 107t147.5 85.5t200 56.5t258.5 20.5q105 0 211 -11.5t206.5 -32.5t193.5 -50.5t173 -65.5l-139 -256q-66 29 -142 53.5t-159 42.5t-171.5 28.5t-180.5 10.5q-131 0 -215.5 -19t-134.5 -48.5t-69.5 -66t-19.5 -72.5q0 -70 63 -114.5t192 -44.5q52 0 119.5 7.5t142 16.5 t152 16.5t150.5 7.5q138 0 244.5 -31t178.5 -88.5t109 -139t37 -182.5q0 -135 -62.5 -240.5t-178 -178t-278.5 -110t-363 -37.5q-132 0 -258 16.5t-241.5 47t-220 73t-193.5 93.5zM566 1823l457 207l457 -207l-109 -214l-348 163l-348 -163z"></glyph><glyph glyph-name="scircumflex" unicode="ŝ" d="M232 362q120 -72 264 -106t295 -34q102 0 170 14t109 36t58 50t17 57q0 42 -36.5 72t-120.5 30q-39 0 -84 -5l-94.5 -10.5t-103 -10.5t-108.5 -5q-120 0 -204.5 26t-137.5 71t-77 106.5t-24 132.5q0 90 42 166t120 131.5t188.5 86.5t246.5 31q71 0 148.5 -8.5 t152.5 -22.5t144 -32.5t122 -39.5l-93 -230q-113 42 -225.5 66.5t-231.5 24.5q-83 0 -140.5 -12.5t-93.5 -33t-52.5 -47t-16.5 -55.5q0 -21 8.5 -38t28 -29.5t51 -19t77.5 -6.5q42 0 89 5t98 10.5t105.5 10.5t111.5 5q106 0 185.5 -25t131.5 -70t78 -106t26 -133 q0 -93 -43 -173t-128 -138.5t-211.5 -91.5t-292.5 -33q-102 0 -197 12.5t-181 34t-161.5 50.5t-137.5 62zM309 1535l471 355l471 -355l-140 -184l-331 250l-331 -250z"></glyph><glyph glyph-name="Scedilla" unicode="Ş" d="M295 465q85 -48 172.5 -86.5t181.5 -65t197.5 -40.5t220.5 -14q141 0 240 18.5t161.5 51t91 77.5t28.5 98q0 85 -71 134.5t-219 49.5q-65 0 -137 -8.5t-145.5 -18.5t-145 -18.5t-134.5 -8.5q-105 0 -201.5 27t-171 81t-118.5 135t-44 189q0 64 17.5 127t56 120.5 t99.5 107t147.5 85.5t200 56.5t258.5 20.5q105 0 211 -11.5t206.5 -32.5t193.5 -50.5t173 -65.5l-139 -256q-66 29 -142 53.5t-159 42.5t-171.5 28.5t-180.5 10.5q-131 0 -215.5 -19t-134.5 -48.5t-69.5 -66t-19.5 -72.5q0 -70 63 -114.5t192 -44.5q52 0 119.5 7.5t142 16.5 t152 16.5t150.5 7.5q138 0 244.5 -31t178.5 -88.5t109 -139t37 -182.5q0 -135 -62.5 -240.5t-178 -178t-278.5 -110t-363 -37.5q-132 0 -258 16.5t-241.5 47t-220 73t-193.5 93.5zM1036 30v-103q170 -20 245.5 -80.5t75.5 -156.5q0 -55 -27.5 -96t-75 -68.5t-112 -41.5 t-139.5 -14q-79 0 -162 15.5t-151 44.5l67 161q66 -23 122.5 -32t106.5 -9q40 0 66.5 4.5t42.5 12t22.5 17t6.5 19.5q0 15 -13 27.5t-44 21.5t-84 14t-132 5v259h185z"></glyph><glyph glyph-name="scedilla" unicode="ş" d="M232 362q120 -72 264 -106t295 -34q102 0 170 14t109 36t58 50t17 57q0 42 -36.5 72t-120.5 30q-39 0 -84 -5l-94.5 -10.5t-103 -10.5t-108.5 -5q-120 0 -204.5 26t-137.5 71t-77 106.5t-24 132.5q0 90 42 166t120 131.5t188.5 86.5t246.5 31q71 0 148.5 -8.5 t152.5 -22.5t144 -32.5t122 -39.5l-93 -230q-113 42 -225.5 66.5t-231.5 24.5q-83 0 -140.5 -12.5t-93.5 -33t-52.5 -47t-16.5 -55.5q0 -21 8.5 -38t28 -29.5t51 -19t77.5 -6.5q42 0 89 5t98 10.5t105.5 10.5t111.5 5q106 0 185.5 -25t131.5 -70t78 -106t26 -133 q0 -93 -43 -173t-128 -138.5t-211.5 -91.5t-292.5 -33q-102 0 -197 12.5t-181 34t-161.5 50.5t-137.5 62zM833 30v-103q170 -20 245.5 -80.5t75.5 -156.5q0 -55 -27.5 -96t-75 -68.5t-112 -41.5t-139.5 -14q-79 0 -162 15.5t-151 44.5l67 161q66 -23 122.5 -32t106.5 -9 q40 0 66.5 4.5t42.5 12t22.5 17t6.5 19.5q0 15 -13 27.5t-44 21.5t-84 14t-132 5v259h185z"></glyph><glyph glyph-name="Scaron" unicode="Š" d="M295 465q85 -48 172.5 -86.5t181.5 -65t197.5 -40.5t220.5 -14q141 0 240 18.5t161.5 51t91 77.5t28.5 98q0 85 -71 134.5t-219 49.5q-65 0 -137 -8.5t-145.5 -18.5t-145 -18.5t-134.5 -8.5q-105 0 -201.5 27t-171 81t-118.5 135t-44 189q0 64 17.5 127t56 120.5 t99.5 107t147.5 85.5t200 56.5t258.5 20.5q105 0 211 -11.5t206.5 -32.5t193.5 -50.5t173 -65.5l-139 -256q-66 29 -142 53.5t-159 42.5t-171.5 28.5t-180.5 10.5q-131 0 -215.5 -19t-134.5 -48.5t-69.5 -66t-19.5 -72.5q0 -70 63 -114.5t192 -44.5q52 0 119.5 7.5t142 16.5 t152 16.5t150.5 7.5q138 0 244.5 -31t178.5 -88.5t109 -139t37 -182.5q0 -135 -62.5 -240.5t-178 -178t-278.5 -110t-363 -37.5q-132 0 -258 16.5t-241.5 47t-220 73t-193.5 93.5zM584 1823l112 207l327 -164l327 164l112 -207l-439 -218z"></glyph><glyph glyph-name="scaron" unicode="š" d="M232 362q120 -72 264 -106t295 -34q102 0 170 14t109 36t58 50t17 57q0 42 -36.5 72t-120.5 30q-39 0 -84 -5l-94.5 -10.5t-103 -10.5t-108.5 -5q-120 0 -204.5 26t-137.5 71t-77 106.5t-24 132.5q0 90 42 166t120 131.5t188.5 86.5t246.5 31q71 0 148.5 -8.5 t152.5 -22.5t144 -32.5t122 -39.5l-93 -230q-113 42 -225.5 66.5t-231.5 24.5q-83 0 -140.5 -12.5t-93.5 -33t-52.5 -47t-16.5 -55.5q0 -21 8.5 -38t28 -29.5t51 -19t77.5 -6.5q42 0 89 5t98 10.5t105.5 10.5t111.5 5q106 0 185.5 -25t131.5 -70t78 -106t26 -133 q0 -93 -43 -173t-128 -138.5t-211.5 -91.5t-292.5 -33q-102 0 -197 12.5t-181 34t-161.5 50.5t-137.5 62zM341 1679l140 175l299 -229l299 229l140 -175l-439 -334z"></glyph><glyph glyph-name="Tcommaaccent" unicode="Ţ" d="M693 1285h-577v278h1471v-278h-577v-1285h-317v1285zM647 -205q0 66 50.5 102t143.5 36q47 0 85 -10.5t65 -31.5t41.5 -54t14.5 -78q0 -85 -72.5 -158t-209.5 -131l-89 112q25 14 44 26t34 24t26.5 24.5t20.5 28.5q-42 0 -71 10t-47.5 25.5t-27 35t-8.5 39.5z"></glyph><glyph glyph-name="tcommaaccent" unicode="ţ" d="M363 958h-285v222h285v367h296v-367h285v-222h-285v-958h-296v958zM315 -205q0 66 50.5 102t143.5 36q47 0 85 -10.5t65 -31.5t41.5 -54t14.5 -78q0 -85 -72.5 -158t-209.5 -131l-89 112q25 14 44 26t34 24t26.5 24.5t20.5 28.5q-42 0 -71 10t-47.5 25.5t-27 35 t-8.5 39.5z"></glyph><glyph glyph-name="Tcaron" unicode="Ť" d="M693 1285h-577v278h1471v-278h-577v-1285h-317v1285zM412 1823l112 207l327 -164l327 164l112 -207l-439 -218z"></glyph><glyph glyph-name="tcaron" unicode="ť" d="M363 958h-285v222h285v367h296v-367h285v-222h-285v-958h-296v958zM1073 1694l266 -35l-103 -567l-235 34z"></glyph><glyph glyph-name="Tbar" unicode="Ŧ" d="M693 1285h-577v278h1471v-278h-577v-1285h-317v1285zM355 998h993v-243h-993v243z"></glyph><glyph glyph-name="tbar" unicode="ŧ" d="M78 707h866v-222h-866v222zM363 958h-285v222h285v367h296v-367h285v-222h-285v-958h-296v958z"></glyph><glyph glyph-name="Utilde" unicode="Ũ" d="M163 1563h317v-861q0 -106 29 -188.5t86.5 -139.5t142.5 -86.5t198 -29.5q112 0 197.5 29.5t143 86.5t86.5 139.5t29 188.5v861h317v-899q0 -154 -52 -280t-151 -216t-242.5 -139t-327.5 -49t-327.5 49t-242.5 139t-151 216t-52 280v899zM488 1913q54 57 121 87t139 30 q63 0 111 -19.5t91 -43t84 -43t90 -19.5q30 0 65.5 8.5t70.5 23.5t67.5 36t56.5 45v-240q-54 -57 -121 -87t-139 -30q-63 0 -111 19.5t-91 43t-84 43t-90 19.5q-30 0 -65.5 -8.5t-70.5 -23.5t-67.5 -36t-56.5 -45v240z"></glyph><glyph glyph-name="utilde" unicode="ũ" d="M185 1181h295v-576q0 -82 18 -149.5t61.5 -115.5t116 -74.5t180.5 -26.5q51 0 103.5 11t100.5 30.5t89.5 46.5t71.5 59v795h296v-1181h-296v101q-109 -65 -219 -93t-209 -28q-162 0 -277.5 39t-189 113.5t-107.5 183t-34 247.5v618zM403 1666q54 57 121 87t139 30 q63 0 111 -19.5t91 -43t84 -43t90 -19.5q30 0 65.5 8.5t70.5 23.5t67.5 36t56.5 45v-250q-54 -57 -121 -87t-139 -30q-63 0 -111 19.5t-91 43t-84 43t-90 19.5q-30 0 -65.5 -8.5t-70.5 -23.5t-67.5 -36t-56.5 -45v250z"></glyph><glyph glyph-name="Umacron" unicode="Ū" d="M163 1563h317v-861q0 -106 29 -188.5t86.5 -139.5t142.5 -86.5t198 -29.5q112 0 197.5 29.5t143 86.5t86.5 139.5t29 188.5v861h317v-899q0 -154 -52 -280t-151 -216t-242.5 -139t-327.5 -49t-327.5 49t-242.5 139t-151 216t-52 280v899zM540 2013h793v-243h-793v243z "></glyph><glyph glyph-name="umacron" unicode="ū" d="M185 1181h295v-576q0 -82 18 -149.5t61.5 -115.5t116 -74.5t180.5 -26.5q51 0 103.5 11t100.5 30.5t89.5 46.5t71.5 59v795h296v-1181h-296v101q-109 -65 -219 -93t-209 -28q-162 0 -277.5 39t-189 113.5t-107.5 183t-34 247.5v618zM355 1690h993v-243h-993v243z"></glyph><glyph glyph-name="Ubreve" unicode="Ŭ" d="M163 1563h317v-861q0 -106 29 -188.5t86.5 -139.5t142.5 -86.5t198 -29.5q112 0 197.5 29.5t143 86.5t86.5 139.5t29 188.5v861h317v-899q0 -154 -52 -280t-151 -216t-242.5 -139t-327.5 -49t-327.5 49t-242.5 139t-151 216t-52 280v899zM936 1640q-100 0 -179 28.5 t-135.5 80t-90.5 123t-44 158.5h227q11 -86 69.5 -133.5t152.5 -47.5t152.5 47.5t69.5 133.5h227q-10 -87 -43 -158.5t-89 -123t-135.5 -80t-181.5 -28.5z"></glyph><glyph glyph-name="ubreve" unicode="ŭ" d="M185 1181h295v-576q0 -82 18 -149.5t61.5 -115.5t116 -74.5t180.5 -26.5q51 0 103.5 11t100.5 30.5t89.5 46.5t71.5 59v795h296v-1181h-296v101q-109 -65 -219 -93t-209 -28q-162 0 -277.5 39t-189 113.5t-107.5 183t-34 247.5v618zM851 1327q-99 0 -177.5 28.5 t-135.5 81.5t-91.5 129t-44.5 171h227q11 -95 69.5 -148t152.5 -53t152.5 53t69.5 148h227q-10 -95 -44.5 -171t-91.5 -129t-135.5 -81.5t-177.5 -28.5z"></glyph><glyph glyph-name="Uring" unicode="Ů" d="M163 1563h317v-861q0 -106 29 -188.5t86.5 -139.5t142.5 -86.5t198 -29.5q112 0 197.5 29.5t143 86.5t86.5 139.5t29 188.5v861h317v-899q0 -154 -52 -280t-151 -216t-242.5 -139t-327.5 -49t-327.5 49t-242.5 139t-151 216t-52 280v899zM936 1415q-80 0 -143 24 t-107 65.5t-67.5 97.5t-23.5 120t23.5 120t67.5 97.5t107 65.5t143 24q79 0 142.5 -24t107.5 -65.5t67.5 -97.5t23.5 -120t-23.5 -120t-67.5 -97.5t-107.5 -65.5t-142.5 -24zM936 1582q34 0 61.5 11t46 30t28.5 44.5t10 54.5q0 30 -10 55t-28.5 44t-46 29.5t-61.5 10.5 q-35 0 -62 -10.5t-45.5 -29.5t-28.5 -44t-10 -55q0 -29 10 -54.5t28.5 -44.5t45.5 -30t62 -11z"></glyph><glyph glyph-name="uring" unicode="ů" d="M185 1181h295v-576q0 -82 18 -149.5t61.5 -115.5t116 -74.5t180.5 -26.5q51 0 103.5 11t100.5 30.5t89.5 46.5t71.5 59v795h296v-1181h-296v101q-109 -65 -219 -93t-209 -28q-162 0 -277.5 39t-189 113.5t-107.5 183t-34 247.5v618zM851 1301q-80 0 -142.5 20 t-106.5 55.5t-67 83t-23 103.5q0 55 23 103t67 83.5t106.5 55.5t142.5 20q79 0 142 -20t107 -55.5t67 -83.5t23 -103q0 -56 -23 -103.5t-67 -83t-107 -55.5t-142 -20zM851 1446q69 0 106.5 33t37.5 84q0 52 -37.5 84t-106.5 32t-106.5 -32t-37.5 -84q0 -51 37.5 -84 t106.5 -33z"></glyph><glyph glyph-name="Uhungarumlaut" unicode="Ű" d="M163 1563h317v-861q0 -106 29 -188.5t86.5 -139.5t142.5 -86.5t198 -29.5q112 0 197.5 29.5t143 86.5t86.5 139.5t29 188.5v861h317v-899q0 -154 -52 -280t-151 -216t-242.5 -139t-327.5 -49t-327.5 49t-242.5 139t-151 216t-52 280v899zM1098 1722l387 308l155 -194 l-424 -285zM504 1722l387 308l155 -194l-424 -285z"></glyph><glyph glyph-name="uhungarumlaut" unicode="ű" d="M185 1181h295v-576q0 -82 18 -149.5t61.5 -115.5t116 -74.5t180.5 -26.5q51 0 103.5 11t100.5 30.5t89.5 46.5t71.5 59v795h296v-1181h-296v101q-109 -65 -219 -93t-209 -28q-162 0 -277.5 39t-189 113.5t-107.5 183t-34 247.5v618zM421 1453l321 466l187 -124l-336 -459 zM972 1452l321 466l187 -124l-336 -459z"></glyph><glyph glyph-name="Uogonek" unicode="Ų" d="M163 1563h317v-861q0 -106 29 -188.5t86.5 -139.5t142.5 -86.5t198 -29.5q112 0 197.5 29.5t143 86.5t86.5 139.5t29 188.5v861h317v-899q0 -140 -43 -256t-124 -204q-72 -62 -128.5 -118t-95.5 -107.5t-59.5 -98.5t-20.5 -92q0 -47 25 -72.5t85 -25.5q43 0 84 12.5 t83 34.5l77 -188q-80 -41 -159 -60t-151 -19q-78 0 -138 20t-100 53t-60.5 74t-20.5 83q0 35 14 74.5t39.5 79t62 77t81.5 70.5q-52 -10 -107.5 -15.5t-116.5 -5.5q-184 0 -327.5 49t-242.5 139t-151 216t-52 280v899z"></glyph><glyph glyph-name="uogonek" unicode="ų" d="M931 -286q0 39 14.5 81t50.5 85.5t96.5 87.5t151.5 87h175l98 -55q-77 -18 -134.5 -45t-95.5 -58t-57.5 -63.5t-19.5 -61.5q0 -15 5.5 -29.5t18.5 -26.5t34.5 -19t52.5 -7q41 0 82 12.5t83 34.5l77 -188q-76 -38 -154 -58.5t-157 -20.5q-80 0 -140 20t-100.5 53.5 t-60.5 78t-20 92.5zM185 1181h295v-576q0 -82 18 -149.5t61.5 -115.5t116 -74.5t180.5 -26.5q51 0 103.5 11t100.5 30.5t89.5 46.5t71.5 59v795h296v-1181h-296v101q-109 -65 -219 -93t-209 -28q-162 0 -277.5 39t-189 113.5t-107.5 183t-34 247.5v618z"></glyph><glyph glyph-name="Wcircumflex" unicode="Ŵ" d="M20 1563h346l424 -1009l98 -244l77 244l156 368l-281 641h326l115 -305l107 305h326l-281 -641l159 -376l96 -236l74 240l426 1013h346l-690 -1563h-314l-139 310l-113 301l-113 -301l-141 -310h-314zM820 1823l457 207l457 -207l-109 -214l-348 163l-348 -163z"></glyph><glyph glyph-name="wcircumflex" unicode="ŵ" d="M22 1181h343l307 -710l90 -199l110 258l-292 651h288l143 -350l143 350h288l-293 -651l111 -258l90 199l307 710h343l-559 -1181h-322l-108 228l-108 -228h-322zM540 1535l471 355l471 -355l-140 -184l-331 250l-331 -250z"></glyph><glyph glyph-name="Ycircumflex" unicode="Ŷ" d="M701 387l-683 1176h359l481 -889l475 889h359l-674 -1174v-389h-317v387zM398 1823l457 207l457 -207l-109 -214l-348 163l-348 -163z"></glyph><glyph glyph-name="ycircumflex" unicode="ŷ" d="M326 -148q46 -30 100 -53t112.5 -38t119.5 -22.5t121 -7.5q204 0 314.5 87.5t110.5 262.5v40q-39 -27 -87.5 -49.5t-104 -38.5t-117 -24.5t-124.5 -8.5q-135 0 -241.5 39.5t-180 116t-112.5 188.5t-39 256v580h295v-498q0 -214 81.5 -315.5t257.5 -101.5 q124 0 219.5 43.5t152.5 111.5v760h296v-1045q0 -169 -48 -293.5t-139.5 -206.5t-224.5 -122.5t-302 -40.5q-165 0 -308 35t-262 95zM358 1535l471 355l471 -355l-140 -184l-331 250l-331 -250z"></glyph><glyph glyph-name="Ydieresis" unicode="Ÿ" d="M701 387l-683 1176h359l481 -889l475 889h359l-674 -1174v-389h-317v387zM1200 1669q-49 0 -88 15t-66.5 40.5t-42 58.5t-14.5 69t14.5 68.5t42 57t66.5 38.5t88 14t88.5 -14t67 -38.5t42 -57t14.5 -68.5t-14.5 -69t-42 -58.5t-67 -40.5t-88.5 -15zM509 1669 q-49 0 -88 15t-66.5 40.5t-42 58.5t-14.5 69t14.5 68.5t42 57t66.5 38.5t88 14t88.5 -14t67 -38.5t42 -57t14.5 -68.5t-14.5 -69t-42 -58.5t-67 -40.5t-88.5 -15z"></glyph><glyph glyph-name="Zacute" unicode="Ź" d="M941 1110l150 183h-939v270h1529l-875 -1099l-156 -194h982v-270h-1557zM506 1841l674 189l70 -248l-682 -159z"></glyph><glyph glyph-name="zacute" unicode="ź" d="M754 934h-605v246h1154l-728 -934h688v-246h-1232zM269 1528l686 321l111 -229l-698 -299z"></glyph><glyph glyph-name="Zdotaccent" unicode="Ż" d="M941 1110l150 183h-939v270h1529l-875 -1099l-156 -194h982v-270h-1557zM879 1678q-50 0 -89.5 14t-68 38t-43.5 56t-15 68q0 37 15 69t43.5 56t68 37.5t89.5 13.5t90 -13.5t67.5 -37.5t42.5 -56t15 -69q0 -36 -15 -68t-42.5 -56t-67.5 -38t-90 -14z"></glyph><glyph glyph-name="zdotaccent" unicode="ż" d="M754 934h-605v246h1154l-728 -934h688v-246h-1232zM667 1341q-44 0 -79.5 12.5t-60.5 34t-38.5 50t-13.5 60.5q0 33 13.5 61.5t38.5 49.5t60.5 33.5t79.5 12.5q45 0 80.5 -12.5t60.5 -33.5t38.5 -49.5t13.5 -61.5q0 -32 -13.5 -60.5t-38.5 -50t-60.5 -34t-80.5 -12.5z "></glyph><glyph glyph-name="Zcaron" unicode="Ž" d="M941 1110l150 183h-939v270h1529l-875 -1099l-156 -194h982v-270h-1557zM439 1823l112 207l327 -164l327 164l112 -207l-439 -218z"></glyph><glyph glyph-name="zcaron" unicode="ž" d="M754 934h-605v246h1154l-728 -934h688v-246h-1232zM228 1679l140 175l299 -229l299 229l140 -175l-439 -334z"></glyph><glyph glyph-name="florin" unicode="ƒ" d="M196 794h-174l37 222h174l28 164q20 120 70 214t125 158.5t173 98t214 33.5q81 0 156 -15.5t131 -44.5l-147 -249q-22 14 -63 26t-93 12t-97.5 -15.5t-81 -46t-60 -77t-34.5 -109.5l-25 -149h401l-37 -222h-402l-223 -1324h-296z"></glyph><glyph glyph-name="AEacute" unicode="Ǽ" d="M1394 1841l674 189l70 -248l-682 -159zM1193 1563h1310v-278h-885v-312h769v-261h-769v-435h906v-277h-1223v263h-755l-198 -263h-344zM1301 524v740l-558 -740h558zM1301 1563h1331v-278h-1014v-312h898v-261h-898v-435h1035v-277h-1352v1563z"></glyph><glyph glyph-name="aeacute" unicode="ǽ" d="M129 371q0 85 34 155.5t104 121t177.5 78t254.5 27.5q109 0 229.5 -16t248.5 -49q-5 56 -35.5 103.5t-84 82t-127.5 53.5t-166 19q-50 0 -105.5 -6t-113.5 -18t-116 -30t-112 -43l-90 243q131 47 281 78t304 31q177 0 305 -46.5t211 -143.5q94 87 228 138.5t308 51.5 q169 0 304 -50.5t229.5 -138.5t145 -207t50.5 -255q0 -17 -0.5 -36.5t-2.5 -35.5h-1115v-3q19 -54 63.5 -98t109 -75t146 -47.5t175.5 -16.5q109 0 208.5 21t194.5 55l100 -226q-116 -56 -250.5 -83t-274.5 -27q-214 0 -379 58.5t-267 162.5q-41 -39 -100.5 -78t-138 -70.5 t-175.5 -51.5t-214 -20q-141 0 -244 30t-169.5 82.5t-98.5 124.5t-32 155zM2279 709q-16 49 -49.5 91.5t-83.5 74t-116 49.5t-147 18q-83 0 -151.5 -19t-120 -51t-86.5 -74t-51 -89h805zM443 382q0 -29 12 -55.5t41 -47t77.5 -33t121.5 -12.5q78 0 151 14t136 37t114 53 t85 62v52q-68 19 -134.5 32t-127 20.5t-114 10.5t-93.5 3q-79 0 -131 -10t-82.5 -28t-43 -43t-12.5 -55zM962 1526l686 321l111 -229l-698 -299z"></glyph><glyph glyph-name="Scommaaccent" unicode="Ș" d="M295 465q85 -48 172.5 -86.5t181.5 -65t197.5 -40.5t220.5 -14q141 0 240 18.5t161.5 51t91 77.5t28.5 98q0 85 -71 134.5t-219 49.5q-65 0 -137 -8.5t-145.5 -18.5t-145 -18.5t-134.5 -8.5q-105 0 -201.5 27t-171 81t-118.5 135t-44 189q0 64 17.5 127t56 120.5 t99.5 107t147.5 85.5t200 56.5t258.5 20.5q105 0 211 -11.5t206.5 -32.5t193.5 -50.5t173 -65.5l-139 -256q-66 29 -142 53.5t-159 42.5t-171.5 28.5t-180.5 10.5q-131 0 -215.5 -19t-134.5 -48.5t-69.5 -66t-19.5 -72.5q0 -70 63 -114.5t192 -44.5q52 0 119.5 7.5t142 16.5 t152 16.5t150.5 7.5q138 0 244.5 -31t178.5 -88.5t109 -139t37 -182.5q0 -135 -62.5 -240.5t-178 -178t-278.5 -110t-363 -37.5q-132 0 -258 16.5t-241.5 47t-220 73t-193.5 93.5zM820 -205q0 66 50.5 102t143.5 36q47 0 85 -10.5t65 -31.5t41.5 -54t14.5 -78 q0 -85 -72.5 -158t-209.5 -131l-89 112q25 14 44 26t34 24t26.5 24.5t20.5 28.5q-42 0 -71 10t-47.5 25.5t-27 35t-8.5 39.5z"></glyph><glyph glyph-name="scommaaccent" unicode="ș" d="M232 362q120 -72 264 -106t295 -34q102 0 170 14t109 36t58 50t17 57q0 42 -36.5 72t-120.5 30q-39 0 -84 -5l-94.5 -10.5t-103 -10.5t-108.5 -5q-120 0 -204.5 26t-137.5 71t-77 106.5t-24 132.5q0 90 42 166t120 131.5t188.5 86.5t246.5 31q71 0 148.5 -8.5 t152.5 -22.5t144 -32.5t122 -39.5l-93 -230q-113 42 -225.5 66.5t-231.5 24.5q-83 0 -140.5 -12.5t-93.5 -33t-52.5 -47t-16.5 -55.5q0 -21 8.5 -38t28 -29.5t51 -19t77.5 -6.5q42 0 89 5t98 10.5t105.5 10.5t111.5 5q106 0 185.5 -25t131.5 -70t78 -106t26 -133 q0 -93 -43 -173t-128 -138.5t-211.5 -91.5t-292.5 -33q-102 0 -197 12.5t-181 34t-161.5 50.5t-137.5 62zM542 -205q0 66 50.5 102t143.5 36q47 0 85 -10.5t65 -31.5t41.5 -54t14.5 -78q0 -85 -72.5 -158t-209.5 -131l-89 112q25 14 44 26t34 24t26.5 24.5t20.5 28.5 q-42 0 -71 10t-47.5 25.5t-27 35t-8.5 39.5z"></glyph><glyph glyph-name="dotlessj" unicode="ȷ" d="M193 1180h296v-1003q0 -88 -7.5 -159.5t-25 -132.5t-47 -114t-73.5 -102t-105 -97.5t-141 -101.5l-109 251q62 46 103 91t65 94t34 105t10 123v1046z"></glyph><glyph glyph-name="circumflex" unicode="ˆ" d="M68 1535l471 355l471 -355l-140 -184l-331 250l-331 -250z"></glyph><glyph glyph-name="caron" unicode="ˇ" d="M200 1679l140 175l299 -229l299 229l140 -175l-439 -334z"></glyph><glyph glyph-name="breve" unicode="˘" d="M531 1327q-99 0 -177.5 28.5t-135.5 81.5t-91.5 129t-44.5 171h227q11 -95 69.5 -148t152.5 -53t152.5 53t69.5 148h227q-10 -95 -44.5 -171t-91.5 -129t-135.5 -81.5t-177.5 -28.5z"></glyph><glyph glyph-name="dotaccent" unicode="˙" d="M438 1341q-44 0 -79.5 12.5t-60.5 34t-38.5 50t-13.5 60.5q0 33 13.5 61.5t38.5 49.5t60.5 33.5t79.5 12.5q45 0 80.5 -12.5t60.5 -33.5t38.5 -49.5t13.5 -61.5q0 -32 -13.5 -60.5t-38.5 -50t-60.5 -34t-80.5 -12.5z"></glyph><glyph glyph-name="ring" unicode="˚" d="M539 1301q-80 0 -142.5 20t-106.5 55.5t-67 83t-23 103.5q0 55 23 103t67 83.5t106.5 55.5t142.5 20q79 0 142 -20t107 -55.5t67 -83.5t23 -103q0 -56 -23 -103.5t-67 -83t-107 -55.5t-142 -20zM539 1446q69 0 106.5 33t37.5 84q0 52 -37.5 84t-106.5 32t-106.5 -32 t-37.5 -84q0 -51 37.5 -84t106.5 -33z"></glyph><glyph glyph-name="ogonek" unicode="˛" d="M120 -292q0 41 17.5 85.5t58.5 90.5t108 91.5t166 89.5h195l100 -65q-113 -26 -184.5 -55t-113 -59t-57 -59t-15.5 -53q0 -36 28 -60t85 -24q40 0 81 12.5t83 34.5l77 -188q-81 -41 -158.5 -60t-151.5 -19q-80 0 -140 20.5t-99.5 53.5t-59.5 76t-20 88z"></glyph><glyph glyph-name="tilde" unicode="˜" d="M170 1666q54 57 121 87t139 30q63 0 111 -19.5t91 -43t84 -43t90 -19.5q30 0 65.5 8.5t70.5 23.5t67.5 36t56.5 45v-250q-54 -57 -121 -87t-139 -30q-63 0 -111 19.5t-91 43t-84 43t-90 19.5q-30 0 -65.5 -8.5t-70.5 -23.5t-67.5 -36t-56.5 -45v250z"></glyph><glyph glyph-name="hungarumlaut" unicode="˝" d="M134 1453l321 466l187 -124l-336 -459zM685 1452l321 466l187 -124l-336 -459z"></glyph><glyph glyph-name="Delta" unicode="Δ" d="M52 161l592 1243h191l623 -1243v-161h-1406v161zM1123 264l-383 712l-353 -712h736z"></glyph><glyph glyph-name="Delta" unicode="∆" d="M52 161l592 1243h191l623 -1243v-161h-1406v161zM1123 264l-383 712l-353 -712h736z"></glyph><glyph glyph-name="Omega" unicode="Ω" d="M165 272h261q-50 45 -92.5 100.5t-73 122.5t-47.5 145t-17 169q0 145 54.5 256.5t146 187t209.5 114t246 38.5t246.5 -38.5t210 -114t146 -187t54.5 -256.5q0 -91 -17.5 -169t-48 -145t-73 -122.5t-92.5 -100.5h262v-272h-598v168q87 81 140.5 161.5t83.5 160.5t40.5 160 t10.5 160q0 66 -24.5 119.5t-71 91.5t-114.5 58.5t-155 20.5t-154.5 -20.5t-114.5 -58.5t-71.5 -91.5t-24.5 -119.5q0 -80 10.5 -160t40.5 -160t84 -160.5t141 -161.5v-168h-598v272z"></glyph><glyph glyph-name="Omega" unicode="Ω" d="M165 272h261q-50 45 -92.5 100.5t-73 122.5t-47.5 145t-17 169q0 145 54.5 256.5t146 187t209.5 114t246 38.5t246.5 -38.5t210 -114t146 -187t54.5 -256.5q0 -91 -17.5 -169t-48 -145t-73 -122.5t-92.5 -100.5h262v-272h-598v168q87 81 140.5 161.5t83.5 160.5t40.5 160 t10.5 160q0 66 -24.5 119.5t-71 91.5t-114.5 58.5t-155 20.5t-154.5 -20.5t-114.5 -58.5t-71.5 -91.5t-24.5 -119.5q0 -80 10.5 -160t40.5 -160t84 -160.5t141 -161.5v-168h-598v272z"></glyph><glyph glyph-name="pi" unicode="π" d="M268 782h-126v265h1249v-265h-187v-372q0 -48 5 -79.5t15 -50.5t25.5 -27t36.5 -8q10 0 38.5 6t66.5 16v-267h-26q-6 0 -13.5 -0.5t-9.5 -0.5h-6q-15 -2 -33 -3.5t-34 -1.5q-75 0 -128.5 17t-91 46t-60.5 69t-35.5 86t-17 96.5t-4.5 100.5v373h-393v-781h-271v781z"></glyph><glyph glyph-name="uni1E02" unicode="Ḃ" d="M222 1563h835q153 0 266.5 -32.5t188.5 -89.5t111.5 -135.5t36.5 -169.5q0 -149 -94 -261q108 -64 161 -166t53 -232q0 -109 -36.5 -197t-111 -150.5t-188 -96t-267.5 -33.5h-955v1563zM1179 963q41 0 80 -3q67 64 67 146q0 85 -66.5 131.5t-194.5 46.5h-526v-321h640z M1185 276q128 0 194.5 55t66.5 155t-66.5 156t-194.5 56h-646v-422h646zM911 1715q-44 0 -79.5 12.5t-60.5 34t-38.5 50t-13.5 60.5q0 33 13.5 61.5t38.5 49.5t60.5 33.5t79.5 12.5q45 0 80.5 -12.5t60.5 -33.5t38.5 -49.5t13.5 -61.5q0 -32 -13.5 -60.5t-38.5 -50 t-60.5 -34t-80.5 -12.5z"></glyph><glyph glyph-name="uni1E03" unicode="ḃ" d="M177 1659h296v-590q39 27 92 51t114 42t126 28.5t130 10.5q150 0 275.5 -44t215.5 -124t140.5 -191.5t50.5 -246.5q0 -141 -53 -254.5t-146.5 -194t-222 -124t-278.5 -43.5q-64 0 -126.5 8t-120 22t-108 33.5t-89.5 42.5v-85h-296v1659zM473 371q45 -36 95 -61t102 -41 t105 -23.5t103 -7.5q102 0 181.5 27.5t134 75.5t83.5 113t29 141q0 71 -28.5 134t-82 110.5t-129 75t-169.5 27.5q-60 0 -120 -11.5t-115.5 -32.5t-104 -51t-84.5 -67v-409zM897 1341q-44 0 -79.5 12.5t-60.5 34t-38.5 50t-13.5 60.5q0 33 13.5 61.5t38.5 49.5t60.5 33.5 t79.5 12.5q45 0 80.5 -12.5t60.5 -33.5t38.5 -49.5t13.5 -61.5q0 -32 -13.5 -60.5t-38.5 -50t-60.5 -34t-80.5 -12.5z"></glyph><glyph glyph-name="uni1E0A" unicode="Ḋ" d="M222 1563h573q251 0 436 -54t306.5 -154.5t181 -244t59.5 -322.5q0 -170 -59 -314.5t-180 -250t-306 -165t-436 -59.5l-575 1v1563zM873 274q142 0 249 36.5t178.5 103.5t107.5 162t36 212q0 115 -36 207.5t-107.5 157t-178.5 99.5t-249 35h-334v-1013h334zM920 1715 q-44 0 -79.5 12.5t-60.5 34t-38.5 50t-13.5 60.5q0 33 13.5 61.5t38.5 49.5t60.5 33.5t79.5 12.5q45 0 80.5 -12.5t60.5 -33.5t38.5 -49.5t13.5 -61.5q0 -32 -13.5 -60.5t-38.5 -50t-60.5 -34t-80.5 -12.5z"></glyph><glyph glyph-name="uni1E0B" unicode="ḋ" d="M94 585q0 141 53 254.5t146.5 194t222 124t278.5 43.5q64 0 126.5 -8t120 -22t108 -33.5t89.5 -42.5v564h296v-1659h-296v111q-39 -27 -92 -51t-114 -42t-126.5 -28.5t-129.5 -10.5q-150 0 -275.5 44t-215.5 124t-140.5 191.5t-50.5 246.5zM405 585q0 -71 28.5 -134 t82 -110.5t129 -75t169.5 -27.5q60 0 120 11.5t115.5 32.5t104 51t84.5 67v409q-45 36 -95 61t-102 41t-105 23.5t-103 7.5q-102 0 -181.5 -27.5t-134 -75.5t-83.5 -113t-29 -141zM814 1341q-44 0 -79.5 12.5t-60.5 34t-38.5 50t-13.5 60.5q0 33 13.5 61.5t38.5 49.5 t60.5 33.5t79.5 12.5q45 0 80.5 -12.5t60.5 -33.5t38.5 -49.5t13.5 -61.5q0 -32 -13.5 -60.5t-38.5 -50t-60.5 -34t-80.5 -12.5z"></glyph><glyph glyph-name="uni1E1E" unicode="Ḟ" d="M222 1563h1398v-278h-1081v-409h918v-261h-918v-615h-317v1563zM921 1716q-44 0 -79.5 12.5t-60.5 34t-38.5 50t-13.5 60.5q0 33 13.5 61.5t38.5 49.5t60.5 33.5t79.5 12.5q45 0 80.5 -12.5t60.5 -33.5t38.5 -49.5t13.5 -61.5q0 -32 -13.5 -60.5t-38.5 -50t-60.5 -34 t-80.5 -12.5z"></glyph><glyph glyph-name="uni1E1F" unicode="ḟ" d="M314 958h-202v222h202q0 120 34 213.5t98.5 158t157 98.5t208.5 34q81 0 159 -15.5t138 -44.5l-105 -249q-24 14 -67.5 26t-95.5 12q-102 0 -164.5 -57.5t-66.5 -175.5h373v-222h-373v-958h-296v958zM610 1716q-44 0 -79.5 12.5t-60.5 34t-38.5 50t-13.5 60.5 q0 33 13.5 61.5t38.5 49.5t60.5 33.5t79.5 12.5q45 0 80.5 -12.5t60.5 -33.5t38.5 -49.5t13.5 -61.5q0 -32 -13.5 -60.5t-38.5 -50t-60.5 -34t-80.5 -12.5z"></glyph><glyph glyph-name="uni1E40" unicode="Ṁ" d="M223 1563h317l568 -570l568 570h317v-1563h-317v1124l-568 -547l-568 547v-1124h-317v1563zM1109 1678q-50 0 -89.5 14t-68 38t-43.5 56t-15 68q0 37 15 69t43.5 56t68 37.5t89.5 13.5t90 -13.5t67.5 -37.5t42.5 -56t15 -69q0 -36 -15 -68t-42.5 -56t-67.5 -38t-90 -14z "></glyph><glyph glyph-name="uni1E41" unicode="ṁ" d="M193 1180h296v-100q111 68 216.5 94.5t206.5 26.5q141 0 259 -45t202 -136q65 50 128 84.5t126 56t128 31t134 9.5q145 0 263 -39.5t201.5 -117.5t129 -194.5t45.5 -269.5v-580h-295v532q0 97 -27.5 173.5t-77 129t-118 80t-150.5 27.5q-45 0 -92 -8.5t-91.5 -26.5 t-83.5 -45.5t-68 -64.5v-797h-295v532q0 97 -27.5 173.5t-77 129t-119 80t-152.5 27.5q-51 0 -102.5 -10.5t-99 -29.5t-89 -46t-74.5 -61v-795h-296v1180zM1360 1341q-44 0 -79.5 12.5t-60.5 34t-38.5 50t-13.5 60.5q0 33 13.5 61.5t38.5 49.5t60.5 33.5t79.5 12.5 q45 0 80.5 -12.5t60.5 -33.5t38.5 -49.5t13.5 -61.5q0 -32 -13.5 -60.5t-38.5 -50t-60.5 -34t-80.5 -12.5z"></glyph><glyph glyph-name="uni1E56" unicode="Ṗ" d="M222 1563h824q180 0 312 -39t219 -112.5t129.5 -179.5t42.5 -239q0 -125 -42 -231t-128.5 -183.5t-218.5 -121t-312 -43.5l-509 1v-415h-317v1563zM1054 689q90 0 157.5 21.5t113 61t68 96t22.5 125.5q0 139 -90.5 216.5t-270.5 77.5h-515v-598h515zM986 1678 q-50 0 -89.5 14t-68 38t-43.5 56t-15 68q0 37 15 69t43.5 56t68 37.5t89.5 13.5t90 -13.5t67.5 -37.5t42.5 -56t15 -69q0 -36 -15 -68t-42.5 -56t-67.5 -38t-90 -14z"></glyph><glyph glyph-name="uni1E57" unicode="ṗ" d="M473 -482h-296v1662h296v-111q39 27 92 51t114 42t126 28.5t130 10.5q150 0 275.5 -44t215.5 -124t140.5 -191.5t50.5 -246.5q0 -141 -53 -254.5t-146.5 -194t-222 -124t-278.5 -43.5q-64 0 -126.5 8t-120 22t-108 33.5t-89.5 42.5v-567zM473 371q45 -36 95 -61t102 -41 t105 -23.5t103 -7.5q102 0 181.5 27.5t134 75.5t83.5 113t29 141q0 71 -28.5 134t-82 110.5t-129 75t-169.5 27.5q-60 0 -120 -11.5t-115.5 -32.5t-104 -51t-84.5 -67v-409zM897 1341q-44 0 -79.5 12.5t-60.5 34t-38.5 50t-13.5 60.5q0 33 13.5 61.5t38.5 49.5t60.5 33.5 t79.5 12.5q45 0 80.5 -12.5t60.5 -33.5t38.5 -49.5t13.5 -61.5q0 -32 -13.5 -60.5t-38.5 -50t-60.5 -34t-80.5 -12.5z"></glyph><glyph glyph-name="uni1E60" unicode="Ṡ" d="M295 465q85 -48 172.5 -86.5t181.5 -65t197.5 -40.5t220.5 -14q141 0 240 18.5t161.5 51t91 77.5t28.5 98q0 85 -71 134.5t-219 49.5q-65 0 -137 -8.5t-145.5 -18.5t-145 -18.5t-134.5 -8.5q-105 0 -201.5 27t-171 81t-118.5 135t-44 189q0 64 17.5 127t56 120.5 t99.5 107t147.5 85.5t200 56.5t258.5 20.5q105 0 211 -11.5t206.5 -32.5t193.5 -50.5t173 -65.5l-139 -256q-66 29 -142 53.5t-159 42.5t-171.5 28.5t-180.5 10.5q-131 0 -215.5 -19t-134.5 -48.5t-69.5 -66t-19.5 -72.5q0 -70 63 -114.5t192 -44.5q52 0 119.5 7.5t142 16.5 t152 16.5t150.5 7.5q138 0 244.5 -31t178.5 -88.5t109 -139t37 -182.5q0 -135 -62.5 -240.5t-178 -178t-278.5 -110t-363 -37.5q-132 0 -258 16.5t-241.5 47t-220 73t-193.5 93.5zM1024 1678q-50 0 -89.5 14t-68 38t-43.5 56t-15 68q0 37 15 69t43.5 56t68 37.5t89.5 13.5 t90 -13.5t67.5 -37.5t42.5 -56t15 -69q0 -36 -15 -68t-42.5 -56t-67.5 -38t-90 -14z"></glyph><glyph glyph-name="uni1E61" unicode="ṡ" d="M232 362q120 -72 264 -106t295 -34q102 0 170 14t109 36t58 50t17 57q0 42 -36.5 72t-120.5 30q-39 0 -84 -5l-94.5 -10.5t-103 -10.5t-108.5 -5q-120 0 -204.5 26t-137.5 71t-77 106.5t-24 132.5q0 90 42 166t120 131.5t188.5 86.5t246.5 31q71 0 148.5 -8.5 t152.5 -22.5t144 -32.5t122 -39.5l-93 -230q-113 42 -225.5 66.5t-231.5 24.5q-83 0 -140.5 -12.5t-93.5 -33t-52.5 -47t-16.5 -55.5q0 -21 8.5 -38t28 -29.5t51 -19t77.5 -6.5q42 0 89 5t98 10.5t105.5 10.5t111.5 5q106 0 185.5 -25t131.5 -70t78 -106t26 -133 q0 -93 -43 -173t-128 -138.5t-211.5 -91.5t-292.5 -33q-102 0 -197 12.5t-181 34t-161.5 50.5t-137.5 62zM780 1341q-44 0 -79.5 12.5t-60.5 34t-38.5 50t-13.5 60.5q0 33 13.5 61.5t38.5 49.5t60.5 33.5t79.5 12.5q45 0 80.5 -12.5t60.5 -33.5t38.5 -49.5t13.5 -61.5 q0 -32 -13.5 -60.5t-38.5 -50t-60.5 -34t-80.5 -12.5z"></glyph><glyph glyph-name="uni1E6A" unicode="Ṫ" d="M693 1285h-577v278h1471v-278h-577v-1285h-317v1285zM852 1678q-50 0 -89.5 14t-68 38t-43.5 56t-15 68q0 37 15 69t43.5 56t68 37.5t89.5 13.5t90 -13.5t67.5 -37.5t42.5 -56t15 -69q0 -36 -15 -68t-42.5 -56t-67.5 -38t-90 -14z"></glyph><glyph glyph-name="uni1E6B" unicode="ṫ" d="M363 958h-285v222h285v367h296v-367h285v-222h-285v-958h-296v958zM511 1716q-44 0 -79.5 12.5t-60.5 34t-38.5 50t-13.5 60.5q0 33 13.5 61.5t38.5 49.5t60.5 33.5t79.5 12.5q45 0 80.5 -12.5t60.5 -33.5t38.5 -49.5t13.5 -61.5q0 -32 -13.5 -60.5t-38.5 -50t-60.5 -34 t-80.5 -12.5z"></glyph><glyph glyph-name="Wgrave" unicode="Ẁ" d="M20 1563h346l424 -1009l98 -244l77 244l156 368l-281 641h326l115 -305l107 305h326l-281 -641l159 -376l96 -236l74 240l426 1013h346l-690 -1563h-314l-139 310l-113 301l-113 -301l-141 -310h-314zM975 2030l674 -189l-62 -218l-682 159z"></glyph><glyph glyph-name="wgrave" unicode="ẁ" d="M22 1181h343l307 -710l90 -199l110 258l-292 651h288l143 -350l143 350h288l-293 -651l111 -258l90 199l307 710h343l-559 -1181h-322l-108 228l-108 -228h-322zM613 1620l111 229l686 -321l-99 -207z"></glyph><glyph glyph-name="Wacute" unicode="Ẃ" d="M20 1563h346l424 -1009l98 -244l77 244l156 368l-281 641h326l115 -305l107 305h326l-281 -641l159 -376l96 -236l74 240l426 1013h346l-690 -1563h-314l-139 310l-113 301l-113 -301l-141 -310h-314zM905 1841l674 189l70 -248l-682 -159z"></glyph><glyph glyph-name="wacute" unicode="ẃ" d="M22 1181h343l307 -710l90 -199l110 258l-292 651h288l143 -350l143 350h288l-293 -651l111 -258l90 199l307 710h343l-559 -1181h-322l-108 228l-108 -228h-322zM613 1528l686 321l111 -229l-698 -299z"></glyph><glyph glyph-name="Wdieresis" unicode="Ẅ" d="M20 1563h346l424 -1009l98 -244l77 244l156 368l-281 641h326l115 -305l107 305h326l-281 -641l159 -376l96 -236l74 240l426 1013h346l-690 -1563h-314l-139 310l-113 301l-113 -301l-141 -310h-314zM1622 1669q-49 0 -88 15t-66.5 40.5t-42 58.5t-14.5 69t14.5 68.5 t42 57t66.5 38.5t88 14t88.5 -14t67 -38.5t42 -57t14.5 -68.5t-14.5 -69t-42 -58.5t-67 -40.5t-88.5 -15zM931 1669q-49 0 -88 15t-66.5 40.5t-42 58.5t-14.5 69t14.5 68.5t42 57t66.5 38.5t88 14t88.5 -14t67 -38.5t42 -57t14.5 -68.5t-14.5 -69t-42 -58.5t-67 -40.5 t-88.5 -15z"></glyph><glyph glyph-name="wdieresis" unicode="ẅ" d="M22 1181h343l307 -710l90 -199l110 258l-292 651h288l143 -350l143 350h288l-293 -651l111 -258l90 199l307 710h343l-559 -1181h-322l-108 228l-108 -228h-322zM1310 1402q-49 0 -88 15t-66.5 40.5t-42 58.5t-14.5 69t14.5 68.5t42 57t66.5 38.5t88 14t88.5 -14 t67 -38.5t42 -57t14.5 -68.5t-14.5 -69t-42 -58.5t-67 -40.5t-88.5 -15zM711 1402q-49 0 -88 15t-66.5 40.5t-42 58.5t-14.5 69t14.5 68.5t42 57t66.5 38.5t88 14t88.5 -14t67 -38.5t42 -57t14.5 -68.5t-14.5 -69t-42 -58.5t-67 -40.5t-88.5 -15z"></glyph><glyph glyph-name="Ygrave" unicode="Ỳ" d="M701 387l-683 1176h359l481 -889l475 889h359l-674 -1174v-389h-317v387zM553 2030l674 -189l-62 -218l-682 159z"></glyph><glyph glyph-name="ygrave" unicode="ỳ" d="M326 -148q46 -30 100 -53t112.5 -38t119.5 -22.5t121 -7.5q204 0 314.5 87.5t110.5 262.5v40q-39 -27 -87.5 -49.5t-104 -38.5t-117 -24.5t-124.5 -8.5q-135 0 -241.5 39.5t-180 116t-112.5 188.5t-39 256v580h295v-498q0 -214 81.5 -315.5t257.5 -101.5 q124 0 219.5 43.5t152.5 111.5v760h296v-1045q0 -169 -48 -293.5t-139.5 -206.5t-224.5 -122.5t-302 -40.5q-165 0 -308 35t-262 95zM431 1620l111 229l686 -321l-99 -207z"></glyph><glyph glyph-name="endash" unicode="–" d="M152 886h1060v-222h-1060v222z"></glyph><glyph glyph-name="emdash" unicode="—" d="M152 886h2433v-222h-2433v222z"></glyph><glyph glyph-name="quoteleft" unicode="‘" d="M433 947q-53 0 -97.5 17t-76.5 49.5t-50 78.5t-18 104q0 131 89.5 250.5t260.5 212.5l110 -157q-45 -24 -79.5 -47t-60 -47t-44 -49.5t-33.5 -54.5q49 0 88.5 -14t68 -38.5t44 -57t15.5 -69.5t-15.5 -69.5t-44 -56.5t-68.5 -38t-89 -14z"></glyph><glyph glyph-name="quoteright" unicode="’" d="M425.026 1659.06q52.9971 0 97.4941 -16.999t76.4951 -49.4971t49.9971 -78.4951t17.999 -103.993q0 -130.992 -89.4941 -250.485q-89.4951 -119.492 -260.484 -212.486l-109.993 156.99q44.9971 23.998 79.4951 46.9971t59.9961 46.9971t43.9971 49.4971 q18.499 25.498 33.498 54.4971q-48.9971 0 -88.4941 13.999q-39.498 13.999 -67.9961 38.4971q-28.498 24.499 -43.9971 56.9971t-15.499 69.4951q0 36.998 15.499 69.4961t43.9971 56.4961q28.498 23.999 68.4961 37.998q39.9971 13.999 88.9941 13.999z"></glyph><glyph glyph-name="quotesinglbase" unicode="‚" d="M417.026 332.058q52.9971 0 97.4941 -16.999t76.4951 -49.4971t49.9971 -78.4951t17.999 -103.993q0 -130.992 -89.4941 -250.485q-89.4951 -119.492 -260.484 -212.486l-109.993 156.99q44.9971 23.998 79.4951 46.9971t59.9961 46.9971t43.9971 49.4971 q18.499 25.498 33.498 54.4971q-48.9971 0 -88.4941 13.999q-39.498 13.999 -67.9961 38.4971q-28.498 24.499 -43.9971 56.9971t-15.499 69.4951q0 36.998 15.499 69.4961t43.9971 56.4961q28.498 23.999 68.4961 37.998q39.9971 13.999 88.9941 13.999z"></glyph><glyph glyph-name="quotedblleft" unicode="“" d="M1087 947q-53 0 -97.5 17t-76.5 49.5t-50 78.5t-18 104q0 131 89.5 250.5t260.5 212.5l110 -157q-45 -24 -79.5 -47t-60 -47t-44 -49.5t-33.5 -54.5q49 0 88.5 -14t68 -38.5t44 -57t15.5 -69.5t-15.5 -69.5t-44 -56.5t-68.5 -38t-89 -14zM465 947q-53 0 -97.5 17 t-76.5 49.5t-50 78.5t-18 104q0 131 89.5 250.5t260.5 212.5l110 -157q-45 -24 -79.5 -47t-60 -47t-44 -49.5t-33.5 -54.5q49 0 88.5 -14t68 -38.5t44 -57t15.5 -69.5t-15.5 -69.5t-44 -56.5t-68.5 -38t-89 -14z"></glyph><glyph glyph-name="quotedblright" unicode="”" d="M1063.03 1659.06q52.9971 0 97.4941 -16.999t76.4951 -49.4971t49.9971 -78.4951t17.999 -103.993q0 -130.992 -89.4941 -250.485q-89.4951 -119.492 -260.484 -212.486l-109.993 156.99q44.9971 23.998 79.4951 46.9971t59.9961 46.9971t43.9971 49.4971 q18.499 25.498 33.498 54.4971q-48.9971 0 -88.4941 13.999q-39.498 13.999 -67.9961 38.4971q-28.498 24.499 -43.9971 56.9971t-15.499 69.4951q0 36.998 15.499 69.4961t43.9971 56.4961q28.498 23.999 68.4961 37.998q39.9971 13.999 88.9941 13.999zM441.026 1659.06 q52.9971 0 97.4941 -16.999t76.4951 -49.4971t49.9971 -78.4951t17.999 -103.993q0 -130.992 -89.4941 -250.485q-89.4951 -119.492 -260.484 -212.486l-109.993 156.99q44.9971 23.998 79.4951 46.9971t59.9961 46.9971t43.9971 49.4971q18.499 25.498 33.498 54.4971 q-48.9971 0 -88.4941 13.999q-39.498 13.999 -67.9961 38.4971q-28.498 24.499 -43.9971 56.9971t-15.499 69.4951q0 36.998 15.499 69.4961t43.9971 56.4961q28.498 23.999 68.4961 37.998q39.9971 13.999 88.9941 13.999z"></glyph><glyph glyph-name="quotedblbase" unicode="„" d="M462.026 332.058q52.9971 0 97.4941 -16.999t76.4951 -49.4971t49.9971 -78.4951t17.999 -103.993q0 -130.992 -89.4941 -250.485q-89.4951 -119.492 -260.484 -212.486l-109.993 156.99q44.9971 23.998 79.4951 46.9971t59.9961 46.9971t43.9971 49.4971 q18.499 25.498 33.498 54.4971q-48.9971 0 -88.4941 13.999q-39.498 13.999 -67.9961 38.4971q-28.498 24.499 -43.9971 56.9971t-15.499 69.4951q0 36.998 15.499 69.4961t43.9971 56.4961q28.498 23.999 68.4961 37.998q39.9971 13.999 88.9941 13.999zM1042.03 332.058 q52.9971 0 97.4941 -16.999t76.4951 -49.4971t49.9971 -78.4951t17.999 -103.993q0 -130.992 -89.4941 -250.485q-89.4951 -119.492 -260.484 -212.486l-109.993 156.99q44.9971 23.998 79.4951 46.9971t59.9961 46.9971t43.9971 49.4971q18.499 25.498 33.498 54.4971 q-48.9971 0 -88.4941 13.999q-39.498 13.999 -67.9961 38.4971q-28.498 24.499 -43.9971 56.9971t-15.499 69.4951q0 36.998 15.499 69.4961t43.9971 56.4961q28.498 23.999 68.4961 37.998q39.9971 13.999 88.9941 13.999z"></glyph><glyph glyph-name="dagger" unicode="†" d="M465 959h-329v222h329v589h257v-589h332v-222h-332v-1441h-257v1441z"></glyph><glyph glyph-name="daggerdbl" unicode="‡" d="M136 686h329v273h-329v222h329v589h257v-589h332v-222h-332v-273h332v-222h-332v-946h-257v946h-329v222z"></glyph><glyph glyph-name="bullet" unicode="•" d="M599 682q-74 0 -133 20.5t-100 55.5t-63.5 82t-22.5 101t22.5 101.5t63.5 83t100 55.5t133 20t132.5 -20t99.5 -55.5t63 -83t22 -101.5t-22 -101t-63 -82t-99.5 -55.5t-132.5 -20.5z"></glyph><glyph glyph-name="ellipsis" unicode="…" d="M1907 173q0 40 16.5 75.5t47.5 62t75 41.5t99 15t99 -15t74.5 -41.5t47 -62t16.5 -75.5t-16.5 -75.5t-47 -61.5t-74.5 -41.5t-99 -15.5t-99 15.5t-75 41.5t-47.5 61.5t-16.5 75.5zM1049 173q0 40 16.5 75.5t47.5 62t75 41.5t99 15t99 -15t74.5 -41.5t47 -62t16.5 -75.5 t-16.5 -75.5t-47 -61.5t-74.5 -41.5t-99 -15.5t-99 15.5t-75 41.5t-47.5 61.5t-16.5 75.5zM191 173q0 40 16.5 75.5t47.5 62t75 41.5t99 15t99 -15t74.5 -41.5t47 -62t16.5 -75.5t-16.5 -75.5t-47 -61.5t-74.5 -41.5t-99 -15.5t-99 15.5t-75 41.5t-47.5 61.5t-16.5 75.5z "></glyph><glyph glyph-name="perthousand" unicode="‰" d="M469 785q-88 0 -162.5 29t-128.5 81.5t-84 127t-30 166.5q0 91 30 166t84 127.5t128.5 81.5t162.5 29t162.5 -29t128.5 -81.5t84 -127.5t30 -166q0 -92 -30 -166.5t-84 -127t-128.5 -81.5t-162.5 -29zM1501 1574h307l-1255 -1574h-307zM469 989q38 0 71.5 14.5t58.5 41 t39.5 63.5t14.5 81t-14.5 81t-39.5 63.5t-58.5 41t-71.5 14.5t-71.5 -14.5t-58.5 -41t-39.5 -63.5t-14.5 -81t14.5 -81t39.5 -63.5t58.5 -41t71.5 -14.5zM2068 383q0 91 30 166t84 127.5t128.5 81.5t162.5 29t162.5 -29t128.5 -81.5t84 -127.5t30 -166q0 -92 -30 -166.5 t-84 -127t-128.5 -81.5t-162.5 -29t-162.5 29t-128.5 81.5t-84 127t-30 166.5zM1170 383q0 91 30 166t84 127.5t128.5 81.5t162.5 29t162.5 -29t128.5 -81.5t84 -127.5t30 -166q0 -92 -30 -166.5t-84 -127t-128.5 -81.5t-162.5 -29t-162.5 29t-128.5 81.5t-84 127t-30 166.5 zM2289 383q0 -44 14.5 -81t39.5 -63.5t58.5 -41t71.5 -14.5t71.5 14.5t58.5 41t39.5 63.5t14.5 81t-14.5 81t-39.5 63.5t-58.5 41t-71.5 14.5t-71.5 -14.5t-58.5 -41t-39.5 -63.5t-14.5 -81zM1391 383q0 -44 14.5 -81t39.5 -63.5t58.5 -41t71.5 -14.5t71.5 14.5t58.5 41 t39.5 63.5t14.5 81t-14.5 81t-39.5 63.5t-58.5 41t-71.5 14.5t-71.5 -14.5t-58.5 -41t-39.5 -63.5t-14.5 -81z"></glyph><glyph glyph-name="guilsinglleft" unicode="‹" d="M240 394l409 314l-409 314l140 183l645 -497l-645 -497z"></glyph><glyph glyph-name="guilsinglright" unicode="›" d="M955.015 394l-408.975 314l408.975 314l-139.991 183l-644.961 -497l644.961 -497z"></glyph><glyph glyph-name="fraction" unicode="⁄" d="M1360 1920h267l-1282 -2097h-267z"></glyph><glyph glyph-name="Euro" unicode="€" d="M100 691h275q-3 40 -3 83q0 17 0.5 34.5t1.5 34.5h-214v222h257q40 121 115 217t178.5 163t234 102.5t283.5 35.5q143 0 284 -32.5t267 -103.5l-146 -240q-98 49 -201 71.5t-200 22.5q-161 0 -284.5 -59t-190.5 -177h583v-222h-649q-1 -15 -1.5 -30.5t-0.5 -31.5 q0 -24 1.5 -46.5t3.5 -43.5h586v-222h-507q69 -103 184 -156t267 -53q127 0 237.5 34.5t211.5 88.5l146 -240q-59 -36 -130 -66.5t-150.5 -52.5t-165.5 -34t-174 -12q-147 0 -271.5 34t-223.5 97.5t-170.5 154.5t-111.5 205h-322v222z"></glyph><glyph glyph-name="trademark" unicode="™" d="M1222 1563h216l275 -280l275 280h216v-770h-216v474l-275 -270l-275 270v-474h-216v770zM549 1376h-284v187h795v-187h-285v-583h-226v583z"></glyph><glyph glyph-name="partialdiff" unicode="∂" d="M151 470q0 116 41.5 205.5t112 150t162.5 92t193 31.5q70 0 134 -11.5t122 -38.5q-24 35 -59 67t-82 57t-107.5 39.5t-133.5 14.5q-17 0 -50.5 -5t-71.5 -12.5t-75 -16.5t-61 -16v290q33 6 70.5 10.5t73 8t65.5 5t49 1.5q153 0 263.5 -34t186 -89.5t121 -127t70 -146 t32 -146.5t7.5 -128q0 -125 -19 -233t-62 -194q-68 -123 -186 -191t-270 -68q-107 0 -202.5 32.5t-167.5 94.5t-114 152t-42 206zM445 470q0 -44 14.5 -86t44 -74.5t74 -52.5t105.5 -20q68 0 114 22.5t73.5 57t39 75.5t11.5 78q0 49 -16.5 89.5t-48 70t-77.5 45.5t-104 16 q-59 0 -102 -18t-71.5 -48.5t-42.5 -70.5t-14 -84z"></glyph><glyph glyph-name="product" unicode="∏" d="M294 1107h-127v265h1288v-265h-126v-1415h-272v1415h-491v-1415h-272v1415z"></glyph><glyph glyph-name="summation" unicode="∑" d="M508 518l-459 650v174h1034v-252h-662l146 -202l264 -370l-409 -573h661v-253h-1034v176z"></glyph><glyph glyph-name="minus" unicode="−" d="M137 906h917v-222h-917v222z"></glyph><glyph glyph-name="radical" unicode="√" d="M70 881h406l228 -625l156 572q48 154 94 320t93 320h313l-535 -1652h-230l-305 801h-220v264z"></glyph><glyph glyph-name="infinity" unicode="∞" d="M573 262q-83 0 -144.5 23t-106 60t-72.5 84t-44.5 94t-23 90.5t-6.5 73.5q0 37 8 82.5t26.5 92.5t49.5 92t77.5 80t109.5 56t146 21q75 0 137.5 -24.5t116 -63t99 -84.5t86.5 -89l4 -4q38 43 87 89.5t106 85.5t120.5 64.5t131.5 25.5q83 0 144.5 -21t105.5 -56t72.5 -80 t44.5 -92t22.5 -92.5t6.5 -82.5q0 -31 -6.5 -74.5t-22.5 -91t-44.5 -93.5t-72.5 -83t-105.5 -60t-144.5 -23q-73 0 -139 23.5t-124 60t-108.5 81t-91.5 86.5q-38 -42 -88 -86.5t-107.5 -81t-120.5 -60t-129 -23.5zM573 464q39 0 77 16.5t74.5 42.5t69.5 59t62 65l20 22 l-54 60q-27 30 -58.5 63t-65.5 60.5t-68 45.5t-67 18q-67 0 -104.5 -25.5t-56 -62t-22.5 -75.5t-4 -66q0 -22 5.5 -59.5t26 -74t59.5 -63t106 -26.5zM1226 649q25 -28 57.5 -60t68 -59t71.5 -45t68 -18q45 0 75.5 12t50 31.5t30 44t15 49t5 46.5t0.5 37q0 16 -1.5 39.5 t-7 49t-17.5 50.5t-32.5 44.5t-51.5 32t-76 12.5q-39 0 -75 -17t-70 -43.5t-65.5 -59.5t-59.5 -66l-29 -35z"></glyph><glyph glyph-name="integral" unicode="∫" d="M35 -189q21 -6 43 -11.5t41 -9.5t34 -6.5t23 -2.5q55 0 73 28t18 80v1196q0 46 3 92.5t14.5 89t34.5 79.5t63 64.5t100.5 43t146.5 15.5q26 0 63 -4t78 -12v-264q-21 6 -43 11t-41.5 8.5t-35 6t-23.5 2.5q-54 0 -72 -28t-18 -80v-1195q0 -47 -3 -93.5t-14.5 -89 t-35 -79.5t-63.5 -64.5t-100.5 -43t-146.5 -15.5q-17 0 -52 4.5t-87 17.5v260z"></glyph><glyph glyph-name="approxequal" unicode="≈" d="M170 942q54 57 121 87t139 30q63 0 111 -19.5t91 -43t84 -43t90 -19.5q30 0 65.5 8.5t70.5 23.5t67.5 36t56.5 45v-250q-54 -57 -121 -87t-139 -30q-63 0 -111 19.5t-91 43t-84 43t-90 19.5q-30 0 -65.5 -8.5t-70.5 -23.5t-67.5 -36t-56.5 -45v250zM170 432q54 57 121 87 t139 30q63 0 111 -19.5t91 -43t84 -43t90 -19.5q30 0 65.5 8.5t70.5 23.5t67.5 36t56.5 45v-250q-54 -57 -121 -87t-139 -30q-63 0 -111 19.5t-91 43t-84 43t-90 19.5q-30 0 -65.5 -8.5t-70.5 -23.5t-67.5 -36t-56.5 -45v250z"></glyph><glyph glyph-name="notequal" unicode="≠" d="M809 1360h227l-653 -1182h-227zM137 1100h917v-222h-917v222zM137 686h917v-222h-917v222z"></glyph><glyph glyph-name="lessequal" unicode="≤" d="M965 1528l137 -215l-628 -417l628 -415l-137 -215l-929 631zM137 221h917v-222h-917v222z"></glyph><glyph glyph-name="greaterequal" unicode="≥" d="M225.059 1528l-136.991 -215l627.962 -417l-627.962 -415l136.991 -215l928.943 631zM1053.01 221h-916.944v-222h916.944v222z"></glyph><glyph glyph-name="lozenge" unicode="◊" d="M846 1203l647 -495l-647 -495l-642 495zM846 502l269 206l-269 206l-268 -206z"></glyph><glyph glyph-name="commaaccent" unicode="" d="M191 -205q0 66 50.5 102t143.5 36q47 0 85 -10.5t65 -31.5t41.5 -54t14.5 -78q0 -85 -72.5 -158t-209.5 -131l-89 112q25 14 44 26t34 24t26.5 24.5t20.5 28.5q-42 0 -71 10t-47.5 25.5t-27 35t-8.5 39.5z"></glyph><glyph glyph-name="ff" unicode="ﬀ" d="M314 958h-202v222h202q0 120 34 213.5t98.5 158t157 98.5t208.5 34q81 0 159 -15.5t138 -44.5l-105 -249q-24 14 -67.5 26t-95.5 12q-102 0 -164.5 -57.5t-66.5 -175.5h373v-222h-373v-958h-296v958zM1340 958h-202v222h202q0 120 34 213.5t98.5 158t157 98.5t208.5 34 q81 0 159 -15.5t138 -44.5l-105 -249q-24 14 -67.5 26t-95.5 12q-102 0 -164.5 -57.5t-66.5 -175.5h373v-222h-373v-958h-296v958z"></glyph><glyph glyph-name="fi" unicode="ﬁ" d="M314 958h-202v222h202q0 120 34 213.5t98.5 158t157 98.5t208.5 34q81 0 159 -15.5t138 -44.5l-105 -249q-24 14 -67.5 26t-95.5 12q-102 0 -164.5 -57.5t-66.5 -175.5h373v-222h-373v-958h-296v958zM1367 1341q-44 0 -79.5 12.5t-60.5 34t-38.5 50t-13.5 60.5 q0 33 13.5 61.5t38.5 49.5t60.5 33.5t79.5 12.5q45 0 80.5 -12.5t60.5 -33.5t38.5 -49.5t13.5 -61.5q0 -32 -13.5 -60.5t-38.5 -50t-60.5 -34t-80.5 -12.5zM1219 1180h296v-1180h-296v1180z"></glyph><glyph glyph-name="fl" unicode="ﬂ" d="M314 958h-202v222h202q0 120 34 213.5t98.5 158t157 98.5t208.5 34q81 0 159 -15.5t138 -44.5l-105 -249q-24 14 -67.5 26t-95.5 12q-102 0 -164.5 -57.5t-66.5 -175.5h373v-222h-373v-958h-296v958zM1219 1659h296v-1659h-296v1659z"></glyph><glyph glyph-name="grave.cap" d="M262 2030l674 -189l-62 -218l-682 159z"></glyph><glyph glyph-name="acute.cap" d="M301 1841l674 189l70 -248l-682 -159z"></glyph><glyph glyph-name="dieresis.cap" d="M1142 1669q-49 0 -88 15t-66.5 40.5t-42 58.5t-14.5 69t14.5 68.5t42 57t66.5 38.5t88 14t88.5 -14t67 -38.5t42 -57t14.5 -68.5t-14.5 -69t-42 -58.5t-67 -40.5t-88.5 -15zM451 1669q-49 0 -88 15t-66.5 40.5t-42 58.5t-14.5 69t14.5 68.5t42 57t66.5 38.5t88 14 t88.5 -14t67 -38.5t42 -57t14.5 -68.5t-14.5 -69t-42 -58.5t-67 -40.5t-88.5 -15z"></glyph><glyph glyph-name="ring.cap" d="M340 1415q-80 0 -143 24t-107 65.5t-67.5 97.5t-23.5 120t23.5 120t67.5 97.5t107 65.5t143 24q79 0 142.5 -24t107.5 -65.5t67.5 -97.5t23.5 -120t-23.5 -120t-67.5 -97.5t-107.5 -65.5t-142.5 -24zM340 1582q34 0 61.5 11t46 30t28.5 44.5t10 54.5q0 30 -10 55 t-28.5 44t-46 29.5t-61.5 10.5q-35 0 -62 -10.5t-45.5 -29.5t-28.5 -44t-10 -55q0 -29 10 -54.5t28.5 -44.5t45.5 -30t62 -11z"></glyph><glyph glyph-name="tilde.cap" d="M-94 1913q54 57 121 87t139 30q63 0 111 -19.5t91 -43t84 -43t90 -19.5q30 0 65.5 8.5t70.5 23.5t67.5 36t56.5 45v-240q-54 -57 -121 -87t-139 -30q-63 0 -111 19.5t-91 43t-84 43t-90 19.5q-30 0 -65.5 -8.5t-70.5 -23.5t-67.5 -36t-56.5 -45v240z"></glyph><glyph glyph-name="dotaccent.cap" d="M340 1678q-50 0 -89.5 14t-68 38t-43.5 56t-15 68q0 37 15 69t43.5 56t68 37.5t89.5 13.5t90 -13.5t67.5 -37.5t42.5 -56t15 -69q0 -36 -15 -68t-42.5 -56t-67.5 -38t-90 -14z"></glyph><glyph glyph-name="caronvertical" d="M172 1694l266 -35l-103 -567l-235 34z"></glyph><glyph glyph-name="macron.cap" d="M-56 2013h793v-243h-793v243z"></glyph><glyph glyph-name="circumflex.cap" d="M208 1823l457 207l457 -207l-109 -214l-348 163l-348 -163z"></glyph><glyph glyph-name="caron.cap" d="M225 1823l112 207l327 -164l327 164l112 -207l-439 -218z"></glyph><glyph glyph-name="hungarumlaut.cap" d="M670 1722l387 308l155 -194l-424 -285zM76 1722l387 308l155 -194l-424 -285z"></glyph><glyph glyph-name="breve.cap" d="M340 1640q-100 0 -179 28.5t-135.5 80t-90.5 123t-44 158.5h227q11 -86 69.5 -133.5t152.5 -47.5t152.5 47.5t69.5 133.5h227q-10 -87 -43 -158.5t-89 -123t-135.5 -80t-181.5 -28.5z"></glyph></font>
</defs>
</svg>
