<?xml version="1.0" encoding="UTF-8" standalone="no"?> <svg xmlns="http://www.w3.org/2000/svg" xmlns:xlink="http://www.w3.org/1999/xlink"><metadata> Created by FontForge 20170731 at Sat Jun 10 00:27:09 2017 By Aleksey,,, (C)1999 House Industries/Brand Design Co., Inc. </metadata><defs><font id="SignPainter-HouseScript"><glyph glyph-name="a_r" unicode="ar" d="M540 280q-42 -117 -107.5 -202t-140.5 -91q-38 -2 -62 14.5t-30 47.5q-56 -60 -114 -60q-43 0 -66.5 28t-23.5 75q0 72 52 147q56 81 113 120.5t101 39.5q49 0 64 -42q4 6 19 29q22 27 40 7t18 -52q0 -31 -15 -62q-7 -16 -23.5 -44.5t-19.5 -34.5q-43 -77 -49 -91 q-15 -41 -15 -57q0 -26 15 -24q44 5 97.5 80t87.5 181q-30 15 -30 47q0 37 34.5 80.5t59.5 45.5q15 1 23 -8.5t8 -26.5q0 -29 -17 -85q44 11 89 42q15 10 23.5 11t19.5 -10q29 -31 29 -67q0 -19 -15 -40q-88 -100 -110 -168q-7 -21 -7 -44q0 -40 23 -42q26 -2 62 39t61 97 q5 12 15.5 11t16.5 -16q14 -28 -3 -67q-20 -46 -66.5 -76t-91.5 -28q-47 1 -73 30t-26 74q0 24 8 53q19 62 99 157q-37 -16 -73 -18zM282 319q0 19 -6 19q-21 0 -64.5 -41.5t-81.5 -102.5q-45 -72 -45 -131q0 -30 11 -30q48 0 130 144q56 99 56 142z"></glyph><glyph glyph-name="a_r_r" unicode="arr" d="M98 31q46 0 129 144q56 98 56 143q0 16 -5 18q-22 2 -65 -40t-81 -103q-46 -72 -46 -131q0 -31 12 -31zM707 276q-85 -97 -110 -167q-8 -24 -8 -46q0 -37 23 -39q37 -2 88.5 77.5t91.5 188.5q-28 13 -28 46q0 37 34.5 80.5t59.5 44.5q31 0 31 -38q0 -29 -15 -81 q43 12 87 43q30 19 44 1q29 -36 29 -68q0 -18 -17 -40q-83 -97 -108 -168q-8 -24 -8 -45q0 -39 22 -41q26 -2 66 38t63 92q6 16 17 16q9 0 16 -12.5t7 -31.5q0 -16 -9 -38q-20 -44 -70 -74.5t-95 -29.5q-47 1 -73 29.5t-26 73.5q0 33 31.5 95.5t75.5 116.5q-40 -16 -76 -18 q-21 -54 -45.5 -101t-55.5 -93t-69 -74t-76 -30q-44 1 -71 29.5t-27 71.5q0 39 32 98t77 115q-38 -16 -76 -18q-114 -281 -247 -294q-40 -4 -63 13t-28 51q-58 -60 -115 -60q-42 0 -65.5 27.5t-23.5 73.5q0 71 52 148q54 81 111 120t102 39q48 0 65 -41l19 29q19 29 40 6 q18 -20 18 -52t-16 -63q-25 -47 -38 -70q-44 -80 -54 -100v1q-14 -34 -14 -56q0 -26 15 -24q41 4 92.5 79.5t92.5 182.5q-29 13 -29 46q0 37 34 80t59 45q16 1 24 -9t8 -29q0 -31 -16 -81q44 12 88 42q28 19 44 2q29 -34 29 -70q0 -20 -16 -39z"></glyph><glyph glyph-name="a_x" unicode="ax" d="M466 151q-15 185 -23 225q-3 14 6.5 19.5t25.5 1.5q63 -14 72 -100q4 -36 6 -60q75 78 128 152q12 16 26.5 15t13.5 -24q-1 -28 -42 -84q-41 -59 -121 -133q6 -71 9 -85q8 -48 18 -48q24 0 58.5 40.5t54.5 86.5q7 15 20.5 14.5t16.5 -16.5q7 -33 -13 -70 q-24 -45 -68.5 -72t-87.5 -28q-41 -1 -64 23.5t-31 78.5q-125 -102 -197 -102q-69 0 -80 59q-54 -54 -111 -54q-42 0 -65.5 27.5t-23.5 73.5q0 70 52 149q54 81 111.5 120.5t102.5 39.5q52 0 65 -44l19 30q21 32 42 7q16 -18 16 -51q0 -32 -16 -64q-6 -12 -44.5 -77 t-55.5 -100q-16 -34 -16 -56q0 -19 9 -19q51 1 187 125zM94 33q49 0 130 144q56 100 56 141q0 19 -6 19q-20 0 -64 -42t-82 -100q-46 -77 -46 -132q0 -30 12 -30z"></glyph><glyph glyph-name="c_r" unicode="cr" d="M678 155q12 -26 -5 -67q-18 -45 -65 -74.5t-91 -29.5q-47 0 -73 28.5t-26 74.5q0 37 32.5 99t75.5 113q-40 -16 -78 -18q-58 -130 -139.5 -213t-171.5 -83q-67 0 -104.5 38.5t-37.5 99.5q0 55 30 115q38 74 91 116t99 42q22 0 35 -8q42 -25 59 -57q16 -34 -20 -107 q-16 -35 -18 -41q-6 -17 -11.5 -19.5t-24.5 6.5q-35 18 -35 58q0 18 23 71q20 41 15 45q-7 5 -27 -11t-46 -50.5t-46 -74.5q-30 -62 -30 -111q0 -32 12 -51.5t34 -20.5q68 -3 140.5 79t116.5 186q-28 13 -28 44q0 38 36.5 82t63.5 45q29 0 29 -35q0 -27 -19 -84q42 10 87 43 q27 20 44 1q28 -32 28 -68q0 -22 -17 -40q-88 -103 -108 -168q-8 -24 -8 -45q0 -39 23 -41q25 -2 61.5 37.5t59.5 92.5q4 10 10.5 14.5t12.5 1t11 -14.5z"></glyph><glyph glyph-name="e_r" unicode="er" d="M123 216l-9 -18q12 -6 22 -6q32 0 73 56q22 28 35 57.5t6 35.5q-9 7 -31 -7.5t-49.5 -47t-46.5 -70.5zM681 157q13 -28 -5 -67q-18 -45 -65 -75t-93 -30t-72 28.5t-26 74.5q0 25 10 55q22 69 96 156q-34 -15 -74 -17q-65 -136 -144 -215t-167 -80q-67 -1 -105 38t-38 100 q0 55 30 115q37 73 91.5 115.5t99.5 42.5q21 0 34 -8q41 -26 62 -52q9 -16 9 -33q0 -51 -42 -105q-49 -61 -111 -61q-39 0 -71 22q-9 -30 -9 -59q0 -35 12.5 -55.5t33.5 -20.5q69 0 140.5 81t116.5 185q-28 17 -28 44q0 38 37 82t64 45q29 0 29 -35q0 -27 -19 -84 q35 9 87 42q29 18 42 1q30 -39 30 -69q0 -20 -17 -38q-85 -99 -110 -169q-7 -23 -7 -43q0 -43 22 -43q27 0 63.5 39t59.5 92q7 15 16.5 16t17.5 -15z"></glyph><glyph glyph-name="e_r_r" unicode="err" d="M137 189q13 0 27 9.5t22.5 19t23.5 27.5q22 29 35 58t6 35q-2 2 -7 2q-19 0 -54.5 -37.5t-64.5 -89.5q-7 -13 -9 -19q10 -5 21 -5zM618 276q-74 -84 -108 -168q-8 -21 -8 -43q0 -42 21 -42q38 0 90.5 79t93.5 188q-29 14 -29 45q0 37 34 80.5t59 45.5q17 1 25.5 -9 t8.5 -28q0 -31 -18 -83q38 8 90 43q27 17 41 2q31 -38 31 -69q0 -18 -16 -40q-86 -99 -110 -167q-8 -24 -8 -44q0 -41 23 -43q27 -2 66.5 38t61.5 93q6 14 18 13.5t17 -12.5q13 -25 -4 -67q-19 -44 -69 -74.5t-96 -29.5t-72.5 29.5t-26.5 72.5q0 32 10 54q12 30 41.5 77.5 t57.5 81.5q-45 -18 -76 -19q-123 -298 -248 -298q-47 0 -72.5 28.5t-25.5 74.5q0 26 10 56q8 25 37 73t58 82q-34 -15 -73 -17q-65 -136 -144 -214.5t-166 -79.5q-67 -1 -104.5 37.5t-37.5 99.5q0 55 30 115q37 73 90.5 115.5t99.5 42.5q21 0 34 -8q46 -29 61 -52 q9 -14 9 -33q0 -52 -41 -105q-49 -61 -111 -61q-37 0 -71 22q-9 -30 -9 -58q0 -34 12.5 -54.5t33.5 -20.5q69 0 140 80t116 184q-27 15 -27 44q0 38 36.5 82t62.5 45q30 0 30 -35q0 -27 -19 -84q37 10 85 42q29 19 42 1q31 -46 31 -68q0 -18 -17 -40z"></glyph><glyph glyph-name="e_x" unicode="ex" d="M119 212l-7 -14q14 -6 24 -6q28 0 72 57q22 29 35 57.5t6 35.5q-9 7 -31.5 -8t-50.5 -48t-48 -74zM90 103q0 -33 18 -54t45 -21q81 0 220 120q-10 157 -25 227q-3 13 6 18.5t26 2.5q60 -15 72 -102q4 -25 6 -63q49 53 132 158q8 10 17.5 14t16.5 -2t5 -22q-3 -27 -44 -85 q-48 -62 -121 -134q2 -30 4.5 -55t2.5 -27q5 -48 20 -48q21 0 55.5 42t55.5 89q6 13 18.5 10.5t17.5 -15.5q10 -28 -14 -71q-25 -46 -68 -73t-85 -27q-79 0 -92 101q-130 -99 -229 -99q-72 0 -112 38.5t-40 102.5q0 54 29 112q37 72 91.5 115t99.5 43q22 0 35 -8 q43 -25 60 -51q10 -17 10 -34q0 -52 -42 -105q-47 -62 -111 -62q-37 0 -72 22q-8 -30 -8 -57z"></glyph><glyph glyph-name="f_j" unicode="fj" d="M432 158q9 12 18 12t14 -11q13 -22 -12 -65q-51 -85 -206 -152q-114 -277 -209 -319q-39 -18 -68 22q-31 43 -31 81q0 60 67 131t155 101q31 77 55 132q-24 -9 -60 -9t-74 34q-69 -142 -124 -288q-12 -35 -35 -6q-18 23 -18 55q0 20 11 59q52 155 160 367.5t199 292.5 q30 27 54 5q32 -29 32 -70q0 -19 -6 -43q-22 -84 -96 -180.5t-150 -150.5q16 -33 48 -33q33 -1 69 31.5t60 80.5q35 78 80 142q19 29 40 7q15 -18 15 -47q0 -24 -12.5 -54t-45.5 -98q-61 -121 -88 -181q91 57 158 154zM304 506q-3 2 -23 -29t-51 -83.5t-62 -110.5 q-6 -12 -10.5 -23.5t-1.5 -11.5q2 0 15.5 18.5t34 50t37.5 62.5q71 122 61 127zM488 426q0 -24 -14 -38q-14 -16 -36 -12t-36 27q-12 19 -12 38q0 24 19 41q16 16 39 9t33 -32q7 -17 7 -33zM131 -107q-56 -40 -91 -96q-16 -24 -27 -51t-12.5 -42.5t5.5 -17.5q16 0 65 86 q33 60 60 121z"></glyph><glyph glyph-name="f_p" unicode="fp" d="M411 234l-34 -56q-18 -56 -18 -86q0 -33 15 -45q18 -15 53.5 26t68.5 110q36 74 36 129q0 32 -13 32q-12 0 -45 -30.5t-63 -79.5zM98 152q-4 0 -8.5 -26.5t-4.5 -46.5q0 -29 9 -43q5 27 7 57q4 59 -3 59zM-27 -214q0 -19 5 -26q9 -11 34 33q43 79 73 199q-29 4 -46 23 q-66 -160 -66 -229zM137 -233q-20 29 3 114q18 57 52 130l-31 -14q-12 -73 -42 -146t-66 -118q-31 -38 -60 -38q-21 0 -42 18q-48 40 -48 111q0 25 2 36q21 145 136.5 369t225.5 385q24 36 42 -1q8 -16 8 -37q0 -39 -39 -115q-15 -28 -74 -123t-86 -149q50 -23 50 -116 q0 -17 -1 -26q61 40 102 120q71 135 129 220q12 16 24 15t19 -18q6 -16 7 -26q41 30 80 30q34 0 58 -25q31 -32 31 -80q0 -58 -39 -141q-40 -85 -87 -122q51 12 96.5 51t66.5 84q6 12 13.5 15.5t13.5 -1t9 -14.5q8 -32 -11 -69q-27 -50 -82.5 -78.5t-112.5 -28.5 q-145 0 -174 79q-69 -128 -138 -286q-5 -14 -15.5 -15.5t-19.5 10.5z"></glyph><glyph glyph-name="f_r" unicode="fr" d="M275 462q-112 -184 -157 -274q35 -12 49 -55.5t12 -77.5q77 66 137 234q-29 15 -29 47q0 38 34.5 81.5t59.5 43.5q31 0 31 -38q0 -36 -16 -83q38 7 88 43q28 20 43 2q31 -38 31 -69q0 -19 -17 -39q-35 -38 -66 -84t-43 -83q-8 -24 -8 -44q0 -43 23 -43q25 0 61.5 39 t60.5 92q6 16 15.5 16.5t18.5 -16.5q12 -26 -5 -67q-18 -44 -65 -73.5t-93 -29.5t-72 29t-26 73q0 24 10 54q20 64 97 157q-44 -15 -74 -17q-33 -95 -86 -171.5t-116 -104.5q-13 -75 -45.5 -152t-69.5 -123q-29 -36 -61 -36q-21 0 -49 22q-47 39 -47 108q0 19 3 37 q22 144 138.5 370t224.5 385q11 17 23 16t19 -18q7 -21 7 -37q0 -48 -41 -114zM98 151q-4 0 -8.5 -26.5t-4.5 -45.5q0 -34 8 -45q5 28 7 60q4 57 -2 57zM-27 -216q0 -27 9 -27q15 0 48 76t53 159q-27 4 -45 22q-65 -162 -65 -230z"></glyph><glyph glyph-name="g_j" unicode="gj" d="M661 425q0 -23 -15 -39q-12 -14 -35 -9.5t-36 24.5q-12 21 -12 36q0 26 18 42q16 17 39 10t34 -33q7 -17 7 -31zM606 154q9 14 19.5 14t16.5 -15q3 -6 -1 -25t-14 -37q-26 -46 -73.5 -75.5t-127.5 -61.5q-78 -176 -114 -234q-43 -69 -85 -93q-18 -11 -38.5 -6t-33.5 26 q-27 39 -27 79q0 18 10 51q-66 -104 -123 -125q-42 -12 -66 25q-29 41 -29 76q0 24 11 50q25 60 82.5 106t133.5 72l14 31q-38 -25 -75 -25q-42 0 -65 28t-23 74q0 71 51 147q55 81 112.5 120.5t101.5 39.5q47 0 65 -42q6 11 18 29q20 29 40 7q17 -19 17 -49q0 -33 -18 -66 q-57 -114 -120 -249q96 52 155 133q83 165 117 215q12 16 20 17.5t20 -10.5q14 -16 14 -46q0 -33 -15 -67q-10 -23 -49 -101q-48 -93 -75 -151q97 56 154 138zM99 30q44 0 128 144q57 99 57 143q0 18 -5 18q-22 0 -65 -41.5t-82 -102.5q-46 -72 -46 -130q0 -31 13 -31z M360 23q-51 -30 -123 -56q-49 -100 -56 -114q53 66 154 112q14 36 25 58zM113 -84q-58 -43 -93 -99q-15 -23 -25 -50.5t-10.5 -41.5t3.5 -17q16 0 61 79q28 50 64 129zM306 -104q-46 -37 -80 -96q-15 -28 -25 -55.5t-11 -40.5t3 -16q12 0 55 85q29 52 58 123z"></glyph><glyph glyph-name="g_r" unicode="gr" d="M91 32q43 0 129 144q55 92 55 143q0 18 -9 18q-19 0 -61 -41.5t-80 -102.5q-46 -72 -46 -131q0 -30 12 -30zM-78 -252q0 20 9 47q20 60 76 107.5t135 79.5l12 33q-37 -27 -76 -27q-41 0 -65 28.5t-24 73.5q0 72 54 148q56 81 112 120.5t100 39.5q51 0 64 -42q11 18 19 29 q22 30 42 6q15 -19 15 -47q0 -32 -18 -68q-91 -183 -119 -244q134 80 204 257q-24 15 -24 43q0 38 36 83t62 46q31 0 31 -35q0 -33 -19 -85q45 14 86 42q15 10 23 11t19 -10q31 -38 31 -68q0 -19 -17 -39q-87 -99 -110 -168q-7 -20 -7 -43q0 -43 23 -43q26 0 63 39t60 92 q7 15 17 16t17 -16q12 -29 -5 -67q-18 -45 -65.5 -74.5t-92.5 -29.5q-46 0 -72.5 29t-26.5 74q0 21 10 54q21 66 99 158q-40 -17 -77 -19q-52 -116 -116 -189.5t-176 -120.5q-55 -129 -104.5 -213.5t-106.5 -109.5q-41 -17 -69 23q-29 44 -29 79zM113 -84q-55 -41 -92 -98 q-15 -24 -25 -51.5t-11 -41.5t3 -17q15 0 60 77q35 64 65 131z"></glyph><glyph glyph-name="i_r" unicode="ir" d="M165 479q17 18 40 10.5t35 -32.5q9 -22 5.5 -40.5t-13.5 -30.5q-12 -17 -36 -13t-37 28q-10 19 -10 37q0 23 16 41zM362 460q29 0 29 -33q0 -34 -21 -87q37 9 87 43q30 20 45 2q29 -38 29 -67q0 -18 -17 -40q-85 -97 -108 -169q-8 -24 -8 -45q0 -42 22 -42 q26 0 62.5 39.5t59.5 92.5q6 15 16 15.5t18 -15.5q12 -26 -5 -67q-18 -44 -65 -73.5t-93 -29.5t-72 28t-26 73q0 25 10 55q31 79 99 159q-37 -17 -78 -19q-58 -132 -132 -213.5t-152 -81.5q-39 0 -59 24t-20 63q0 26 11 64q19 60 60 131t67 108q20 27 40 6q16 -18 16 -49 q0 -46 -49 -129q-64 -109 -64 -154q0 -23 14 -23q36 0 104.5 80.5t105.5 182.5q-27 13 -27 44q0 37 37 82t64 45z"></glyph><glyph glyph-name="i_r_r" unicode="irr" d="M166 477q17 17 40 9.5t34 -32.5q19 -37 -7 -71q-12 -17 -36 -13t-38 28q-9 20 -9 38q0 22 16 41zM670 459q33 0 33 -44q0 -35 -14 -76q39 11 85 43q26 19 43 1q30 -35 30 -68q0 -20 -17 -40q-82 -89 -109 -168q-7 -20 -7 -44q0 -42 23 -42q25 0 64 39.5t62 91.5 q7 16 16 16.5t18 -16.5q13 -29 -4 -67q-19 -45 -67.5 -74t-94.5 -29q-47 0 -73 28t-26 74q0 24 9 54q21 68 98 158q-41 -16 -78 -18q-21 -48 -36.5 -79.5t-41.5 -77t-49.5 -72.5t-55.5 -47.5t-64 -20.5q-46 0 -72 28t-26 73q0 28 9 55q26 72 100 159q-37 -17 -78 -19 q-59 -132 -134 -213.5t-155 -81.5q-37 0 -56 24t-19 63q0 31 11 64q22 59 63 132.5t65 106.5q11 15 19.5 16.5t20.5 -10.5q16 -18 16 -49q0 -28 -15 -64q-7 -17 -33 -63q-39 -66 -51 -98q-13 -41 -13 -58q0 -23 13 -23q42 0 107 78t103 185q-27 15 -27 43q0 37 37 82t64 46 q29 0 29 -33q0 -30 -21 -86q43 11 88 42q28 18 42 1q31 -38 31 -68q0 -18 -17 -40q-90 -98 -110 -167q-6 -19 -6 -41q0 -44 23 -44q39 0 95 80.5t90 185.5q-31 13 -31 46q0 37 35 81.5t59 44.5z"></glyph><glyph glyph-name="i_x" unicode="ix" d="M167 479q19 13 40.5 6.5t31.5 -29.5q7 -17 7 -30q0 -23 -15 -40q-13 -17 -35.5 -13t-36.5 28q-11 19 -11 38q0 28 19 40zM270 376q29 -6 45.5 -24t22.5 -62q4 -34 5 -59q68 71 127 153q8 11 17.5 15t16 -2t5.5 -21q-1 -29 -38 -82q-42 -54 -122 -134q4 -62 6 -84 q7 -47 20 -47q20 0 55 41.5t55 85.5q5 11 12 14t13 -1.5t10 -14.5q11 -32 -13 -70q-26 -43 -69.5 -71.5t-83.5 -28.5q-78 0 -91 98q-120 -98 -192 -98q-44 0 -66.5 23.5t-22.5 63.5q0 28 11 64q17 50 61.5 130.5t66.5 109.5q20 28 41 6q17 -20 17 -51q0 -32 -15 -62 q-8 -19 -42.5 -78.5t-44.5 -83.5q-14 -34 -14 -56q0 -13 4 -19.5t12 -5.5q52 3 179 121q-11 153 -21 208q-3 13 7 18.5t26 3.5z"></glyph><glyph glyph-name="j_r" unicode="jr" d="M156 479q16 16 38 9t35 -31q8 -15 8 -31q0 -21 -16 -41q-12 -16 -35 -12t-37 27q-12 20 -12 37q0 25 19 42zM151 268q-5 -11 -45 -91q-64 -127 -79 -162q154 79 232 275q-25 13 -25 42q0 37 36.5 82t61.5 46q32 0 32 -34q0 -30 -20 -85q45 13 85 42q16 11 23.5 11.5 t19.5 -9.5q30 -36 30 -68q0 -21 -16 -40q-87 -101 -110 -169q-6 -17 -6 -43q0 -43 22 -43q25 0 61 39.5t59 92.5q7 16 17 16.5t18 -16.5q12 -27 -4 -67q-20 -45 -66 -74t-91 -29q-47 0 -72.5 28t-25.5 74q0 31 8 54q9 28 38.5 75t59.5 83q-37 -16 -74 -18 q-26 -57 -50.5 -98.5t-61 -85.5t-88 -78.5t-119.5 -62.5q-114 -277 -209 -320q-42 -18 -69 21q-32 47 -32 82q0 21 9 45q22 61 79.5 110.5t133.5 76.5q113 276 198 404q18 29 41 7q15 -15 15 -47q0 -34 -16 -66zM-114 -95q-58 -47 -91 -110q-11 -21 -17.5 -46t-6.5 -37 t2 -15q9 0 48 73q27 47 65 135z"></glyph><glyph glyph-name="k_r" unicode="kr" d="M690 154q6 14 16.5 14.5t17.5 -14.5q13 -26 -5 -67q-18 -45 -65.5 -74.5t-93.5 -29.5t-72.5 29t-26.5 74q0 21 10 54q22 69 99 158q-42 -16 -77 -18q-44 -116 -111.5 -203t-137.5 -87q-59 0 -96.5 50.5t-37.5 152.5q-33 -57 -87 -187q-14 -31 -35 -6q-14 21 -14 47 q0 25 12 66q20 70 116 256.5t160 275.5q9 13 22 13.5t22 -13.5q10 -18 10 -39q0 -43 -37 -108q-62 -108 -65 -114q26 17 50 24q33 10 55 -1.5t39 -45.5q11 -24 11 -48q0 -39 -34 -72q-55 -52 -133 -79q3 -56 19 -93.5t34 -37.5q33 0 88.5 78.5t92.5 178.5q-30 14 -30 47 q0 37 34.5 80.5t59.5 45.5q17 1 24.5 -9.5t7.5 -29.5q0 -36 -15 -82q44 11 88 43q27 19 42 0q29 -36 29 -66q0 -20 -16 -40q-88 -100 -110 -168q-7 -25 -7 -43q0 -43 23 -43q26 0 63.5 39t60.5 92zM303 359q-14 21 -90 -36q-49 -37 -95 -114q70 22 125 63q34 26 51 50.5 t9 36.5z"></glyph><glyph glyph-name="o_i" unicode="oi" d="M601 425q0 -25 -12.5 -39.5t-30.5 -14.5q-19 0 -36.5 22t-17.5 45q0 20 12.5 36t30.5 16q32 0 47 -36q7 -17 7 -29zM564 154q7 15 18 15.5t18 -15.5q13 -27 -7 -66q-23 -45 -72.5 -75.5t-95.5 -29.5q-43 1 -64.5 23.5t-21.5 61.5q0 50 42 142q-23 -10 -60 -10 q-17 -67 -61.5 -128t-99.5 -79q-20 -6 -39 -6q-60 0 -96 49q-27 37 -27 88q0 67 42 139q36 60 81 95.5t93 35.5q42 0 67 -37q17 -17 26.5 -28.5t17 -36t4.5 -55.5q61 12 147 136q21 32 41 7q17 -19 17 -49q0 -33 -16 -64q-7 -10 -20 -36.5t-17 -34.5q-37 -68 -45 -87 q-15 -36 -15 -61q0 -13 3.5 -19.5t10.5 -5.5q29 1 68.5 41t60.5 90zM252 251q14 32 14 60q0 21 -15 21q-5 0 -10 -6.5t-5 -17.5q0 -38 16 -57zM76 79q0 -42 24 -42q19 0 47 28.5t55 75.5q24 46 36 78q-47 29 -63 78q-34 -34 -57 -77q-42 -75 -42 -141z"></glyph><glyph glyph-name="o_j" unicode="oj" d="M598 463v1q8 -15 8 -31q0 -21 -16 -39q-12 -16 -35.5 -12.5t-36.5 27.5q-10 17 -10 36q0 24 17 41q16 18 39 10.5t34 -33.5zM150 -386q-41 -17 -69 22q-32 48 -32 91q0 17 9 44q40 120 213 187q51 124 114 252q-11 -4 -27 -6.5t-26 -3.5h-11q-17 -67 -61.5 -128 t-99.5 -79q-20 -6 -39 -6q-60 0 -96 49q-27 37 -27 88q0 67 42 139q36 60 81 95.5t93 35.5q42 0 67 -37q17 -17 26.5 -28.5t17 -36t4.5 -55.5q62 11 125 102q10 18 23 38q19 28 40 7q15 -17 15 -47q0 -34 -16 -66q-23 -51 -51 -105q-55 -110 -78 -161q88 53 157 153 q9 13 19 13.5t16 -15.5q7 -23 -15 -62q-46 -83 -204 -152q-56 -129 -106.5 -216.5t-103.5 -111.5zM252 251q14 32 14 60q0 21 -15 21q-5 0 -10 -6.5t-5 -17.5q0 -38 16 -57zM76 79q0 -42 24 -42q19 0 47 28.5t55 75.5q24 46 36 78q-47 29 -63 78q-34 -34 -57 -77 q-42 -75 -42 -141zM252 -97q-63 -43 -105 -107q-27 -40 -37.5 -75t-1.5 -46q6 -9 25 16.5t50 81.5q0 1 69 130z"></glyph><glyph glyph-name="o_l" unicode="ol" d="M622 508q-12 0 -70 -100q-4 -7 -21 -33.5t-27.5 -46.5t-17.5 -42q-3 -8 -1 -8q4 0 65 80q19 28 38.5 64t29 61t4.5 25zM252 251q14 32 14 60q0 21 -15 21q-5 0 -10 -6.5t-5 -17.5q0 -38 16 -57zM75 80q0 -44 25 -44q20 1 47.5 29t54.5 76q19 34 31 70q-50 36 -59 84 q-33 -30 -58 -75q-41 -74 -41 -140zM673 490q-11 -38 -38 -87t-56 -86q-68 -82 -132 -114q-33 -83 -33 -136q0 -41 19 -41q30 0 73 41.5t70 96.5q9 19 21.5 19.5t17.5 -19.5q7 -28 -8 -64q-14 -35 -66.5 -73.5t-107.5 -38.5q-46 0 -72 26t-26 77q0 28 7 56q4 22 7 31 q-17 -1 -34 1q-20 -61 -62.5 -114.5t-92.5 -71.5q-16 -6 -40 -6q-59 0 -95 49q-28 39 -28 87q0 64 43 140q35 60 81.5 95.5t92.5 35.5q39 0 65 -36q22 -25 29.5 -35.5t14 -30t4.5 -45.5q-1 -18 -4 -33q16 -3 37 0q34 105 97 207.5t134 176.5q30 32 58 5q30 -31 30 -72 q0 -20 -6 -41z"></glyph><glyph glyph-name="o_m" unicode="om" d="M252 251q14 32 14 60q0 21 -15 21q-5 0 -10 -6.5t-5 -17.5q0 -38 16 -57zM925 156q16 29 35 0q5 -5 4 -27.5t-10 -39.5q-21 -42 -72.5 -75t-96.5 -32q-49 1 -76.5 25.5t-27.5 65.5q0 33 15 64q20 45 72 126q41 61 38 62q-16 3 -89 -71q-36 -35 -69.5 -84.5t-52 -85 t-45.5 -92.5q-5 -12 -17 -15t-23 7q-20 20 -20 54q0 32 17 74q14 38 74 133q47 77 46 82q-4 2 -17 -6.5t-37.5 -30t-52.5 -52.5q-71 -78 -140 -242q-11 -23 -35 -5q-23 18 -23 53q0 23 9 53q13 42 51 114q-32 -12 -59 -11q-21 -84 -75 -149t-124 -65q-60 0 -97 50 q-27 38 -27 86q0 68 43 141q31 55 75 92.5t89 37.5q28 0 43.5 -7.5t31.5 -28.5q28 -32 38.5 -54.5t10.5 -65.5q64 10 154 149q8 12 19.5 12.5t19.5 -12.5q13 -23 13 -45q0 -11 -3 -28q82 80 130 80q24 0 38.5 -23t14.5 -55q35 30 71 51t57 20t32.5 -18.5t11.5 -42.5 q0 -28 -11 -53q-6 -15 -48 -85q-22 -32 -41 -72q-14 -28 -14 -53q0 -38 26 -38t60.5 38.5t63.5 93.5zM79 81q0 -44 21 -44q19 0 49 28t56 76q22 40 33 80q-48 29 -60 75q-32 -32 -58 -77q-41 -70 -41 -138z"></glyph><glyph glyph-name="o_n" unicode="on" d="M781 157q14 -29 -5 -67q-20 -43 -68.5 -75t-95.5 -32q-48 0 -72 23t-24 63q0 28 13 66q13 36 74 142q7 12 17 33.5t8 21.5q-5 0 -19 -8.5t-39 -29.5t-51 -50q-61 -67 -140 -245q-5 -11 -14 -14t-22 9q-21 23 -21 54q0 22 11 52q17 50 48 110q-21 -10 -58 -10 q-22 -83 -76.5 -148t-123.5 -65q-60 0 -96 49q-27 39 -27 88q0 67 42 139q30 53 74.5 89.5t89.5 40.5q44 4 75 -35q8 -10 17 -19q17 -17 24.5 -38.5t7.5 -64.5q34 10 77 52t80 97q20 26 38 2q14 -23 14 -49q0 -12 -1 -18q79 73 125 73q21 0 38.5 -22.5t17.5 -50.5 q0 -21 -9 -40q-25 -48 -40 -71q-28 -44 -51 -93q-15 -33 -15 -58q0 -33 22 -33t58 40t66 92q6 11 15.5 11t15.5 -11zM252 251q14 32 14 60q0 21 -15 21q-5 0 -10 -6.5t-5 -17.5q0 -38 16 -57zM77 81q0 -44 23 -44q21 1 50 28.5t54 75.5q18 34 35 78q-46 29 -62 78 q-29 -29 -58 -77q-42 -73 -42 -139z"></glyph><glyph glyph-name="o_o" unicode="oo" d="M414 311q27 27 43 41t43 27.5t56 13.5q39 0 66 -37q5 -6 14 -15t13 -13.5t10.5 -14.5t7.5 -19t3.5 -26.5t-1.5 -36.5q12 0 18.5 -2.5t6 -7t-4.5 -9.5q-10 -11 -26 -14q-17 -67 -62 -127.5t-99 -79.5q-18 -6 -36 -6q-59 0 -98 51q-28 37 -28 87q0 37 16 81q-16 -4 -35 -6 q-17 -67 -62 -127.5t-99 -79.5q-18 -6 -36 -6q-59 0 -98 51q-28 37 -28 87q0 64 42 140q34 61 79.5 95.5t94.5 34.5q39 0 66 -37q5 -6 16 -17t15 -17t10 -17.5t7 -27t0 -36.5q43 14 86 70zM594 251q14 32 14 60q0 21 -15 21q-5 0 -10 -6.5t-5 -17.5q0 -38 16 -57zM252 251 q14 32 14 60q0 21 -15 21q-5 0 -10 -6.5t-5 -17.5q0 -38 16 -57zM418 78q0 -42 24 -42q20 0 48 27.5t55 77.5q25 43 33 72q-50 31 -61 81q-31 -30 -57 -75q-42 -78 -42 -141zM76 78q0 -42 24 -42q20 0 48 27.5t55 77.5q25 43 33 72q-50 31 -61 81q-31 -30 -57 -75 q-42 -78 -42 -141z"></glyph><glyph glyph-name="o_p" unicode="op" d="M446 90q0 -49 25 -49q20 1 52 41t61 99q36 75 36 131q0 32 -9 32q-16 0 -49 -30t-63 -81l-35 -57q-18 -49 -18 -86zM253 251q14 32 14 60q0 21 -15 21q-5 0 -10 -6.5t-5 -17.5q0 -38 16 -57zM77 78q0 -39 24 -39q21 0 49 28t53 74q25 48 36 80q-22 13 -39.5 33.5 t-24.5 41.5q-40 -43 -69 -103t-29 -115zM778 153q7 -34 -14 -69q-29 -48 -83 -77t-110 -29q-134 0 -173 78q-73 -135 -140 -285q-6 -15 -15.5 -16.5t-19.5 12.5q-14 22 -14 47q0 24 11 65q29 93 160 331q-26 -11 -58 -10q-21 -82 -77.5 -148t-121.5 -66q-58 0 -97 50 q-27 36 -27 86q0 68 42 141q35 61 80 95.5t94 34.5q40 0 66 -36q4 -5 11.5 -13.5t11 -12.5t9 -11.5t7.5 -12.5t5 -13t4 -15.5t1 -18.5t-1 -23q64 12 155 148q11 17 23 15.5t19 -18.5q5 -14 8 -28q42 34 83 34q35 0 57 -26q29 -30 29 -79q0 -60 -39 -142q-45 -88 -85 -121 q50 11 96.5 52t67.5 85q5 10 12.5 12.5t14 -2t8.5 -14.5z"></glyph><glyph glyph-name="o_r" unicode="or" d="M675 125q0 -20 -9 -38q-20 -45 -67 -75t-92 -30q-47 0 -73 29t-26 75q0 37 32 97t77 115q-40 -17 -79 -19q-45 -70 -119 -78q-18 -76 -79 -145t-119 -69q-59 0 -97 50q-27 39 -27 87q0 65 41 140q29 53 75 89.5t91 40.5q45 3 75 -37q2 -3 4.5 -5.5t6 -5.5t5.5 -5 q32 -34 32 -100q28 11 52 49q-25 14 -25 42q0 38 37 82t63 45q30 0 30 -35q0 -32 -19 -84q35 9 86 43q26 19 44 1q28 -31 28 -68q0 -22 -17 -40q-84 -98 -108 -168q-8 -24 -8 -45q0 -41 23 -41q26 0 62.5 39.5t59.5 90.5q7 15 16.5 16t17.5 -14q6 -11 6 -29zM251 251 q14 32 14 60q0 21 -15 21q-5 0 -10 -6.5t-5 -17.5q0 -38 16 -57zM75 80q0 -42 18 -42q19 0 50.5 29.5t58.5 74.5q23 40 32 76q-47 28 -59 78q-31 -31 -58 -76q-42 -79 -42 -140z"></glyph><glyph glyph-name="o_r_r" unicode="orr" d="M254 251q14 32 14 60q0 21 -15 21q-5 0 -10 -6.5t-5 -17.5q0 -38 16 -57zM610 277q-86 -95 -110 -168q-8 -24 -8 -47q0 -39 24 -39q37 0 89.5 79t93.5 187q-29 14 -29 46q0 38 34.5 81t60.5 44q31 0 31 -38q0 -32 -17 -81q44 11 88 43q27 18 43 1q30 -36 30 -68 q0 -23 -16 -40q-85 -99 -110 -168q-7 -26 -7 -44q0 -42 23 -42q26 0 65.5 39.5t62.5 90.5q7 16 17 16.5t18 -15.5q12 -29 -4 -67q-19 -45 -69 -74.5t-97 -29.5q-46 0 -71.5 29t-25.5 74q0 87 106 212q-36 -16 -75 -18q-22 -54 -46.5 -102t-56.5 -94.5t-69.5 -74t-74.5 -27.5 q-44 0 -72 29.5t-28 72.5q0 87 108 213q-38 -15 -79 -17q-42 -71 -117 -80q-15 -61 -66 -126t-93 -81q-16 -6 -41 -6q-59 0 -96 49q-27 38 -27 87q0 64 43 140q32 54 75.5 90.5t88.5 39.5q27 2 43.5 -6t32.5 -30q24 -22 36.5 -46.5t12.5 -69.5q29 9 51 49q-26 16 -26 42 q0 37 37.5 82t63.5 45q30 0 30 -35q0 -26 -19 -83q39 10 86 41q15 10 22.5 11t19.5 -9q30 -39 30 -69q0 -19 -16 -38zM78 81q0 -42 21 -42q21 1 50 28t55 74q22 40 34 77q-48 29 -62 79q-25 -26 -56 -77q-42 -77 -42 -139z"></glyph><glyph glyph-name="o_u" unicode="ou" d="M802 157q5 -6 3 -26t-12 -40q-22 -44 -69 -76t-93 -32q-41 0 -64 20t-28 53q-63 -69 -129 -69q-37 0 -54 23t-17 58q0 33 12 69q13 38 29 68q-31 -11 -61 -11q-22 -78 -78 -142.5t-116 -64.5q-61 0 -99 51q-27 36 -27 88q0 68 41 139q29 51 75 88t90 41q46 3 76 -37 q2 -3 4.5 -5.5t5.5 -5t5 -4.5q37 -38 32 -108q63 11 122 97l37 54q18 27 39 3q18 -21 18 -48q0 -33 -33 -91q-50 -81 -76 -142q-11 -30 -11 -52q0 -24 12 -24q40 0 130 146q32 50 66.5 117t52.5 92q20 30 41 6q17 -20 17 -52t-16 -64q-7 -16 -42.5 -74.5t-48.5 -90.5 q-16 -34 -16 -59q0 -28 19 -28q25 0 63 40t66 92q7 14 16.5 14.5t17.5 -13.5zM253 251q14 32 14 60q0 21 -15 21q-5 0 -10 -6.5t-5 -17.5q0 -38 16 -57zM77 81q0 -42 21 -42q20 0 49.5 27.5t56.5 76.5q19 32 33 74q-19 13 -36.5 36t-24.5 44q-28 -27 -58 -77 q-41 -74 -41 -139z"></glyph><glyph glyph-name="o_v" unicode="ov" d="M664 295q-9 -11 -33 -40t-33 -40t-28.5 -35.5t-29.5 -37t-26.5 -34t-27.5 -37.5t-24.5 -36.5t-26.5 -40.5q-13 -22 -34 -12q-32 16 -43.5 35.5t-10.5 58.5q3 46 20 143q-20 -12 -47 -17q-20 -79 -76.5 -146.5t-123.5 -67.5q-55 0 -94 50q-29 38 -29 87q0 66 42 140 q29 51 75 88t90 41q27 2 43 -6t33 -31q2 -3 15 -16q33 -33 33 -95q53 28 81 139q10 34 39 11q35 -30 35 -74q0 -11 -6.5 -40t-20.5 -88.5t-25 -112.5q53 81 123.5 172.5t115.5 137.5q36 34 36 -7q0 -39 -42 -89zM252 251q14 32 14 60q0 21 -15 21q-5 0 -10 -6.5t-5 -17.5 q0 -38 16 -57zM74 81q0 -42 24 -42q20 0 48.5 27.5t54.5 76.5q24 41 35 75q-19 12 -36.5 34t-25.5 44q-35 -36 -57 -76q-43 -74 -43 -139z"></glyph><glyph glyph-name="o_w" unicode="ow" d="M743 179q10 77 33.5 129.5t45 71t38.5 18.5q13 0 19.5 -11t2.5 -31q-12 -67 -86 -185q-114 -186 -208 -186q-29 0 -47.5 17t-23.5 44q-52 -56 -110 -56q-34 0 -51 22t-17 57q0 30 13 68t27 68q-29 -10 -59 -10q-22 -78 -78 -142.5t-120 -64.5q-56 0 -95 50q-29 38 -29 87 q0 66 42 140q29 51 75 88.5t90 40.5q27 2 43.5 -6t33.5 -31q4 -6 14 -16q38 -38 32 -107q34 7 67.5 34t56.5 64q22 36 35 53q9 13 21 13t21 -12q15 -21 15 -46q0 -38 -33 -91q-51 -85 -77 -146q-13 -32 -13 -55q0 -18 12 -18q25 0 101 128q35 57 85 147q23 46 47 80 q23 33 42 7q16 -24 16 -50q0 -33 -17 -66q-6 -12 -40 -70.5t-52 -98.5q-18 -38 -18 -60q0 -21 11 -21q23 0 60 42.5t75 110.5zM253 251q14 32 14 60q0 21 -15 21q-5 0 -10 -6.5t-5 -17.5q0 -38 16 -57zM77 80q0 -41 22 -41q21 0 49.5 27.5t53.5 76.5q24 42 36 75 q-23 12 -40.5 33.5t-21.5 45.5q-36 -38 -57 -77q-42 -75 -42 -140z"></glyph><glyph glyph-name="o_x" unicode="ox" d="M347 215q-10 -11 -26 -14q-17 -67 -62 -127.5t-99 -79.5q-18 -6 -36 -6q-59 0 -98 51q-28 37 -28 87q0 64 42 140q34 61 79.5 95.5t94.5 34.5q39 0 66 -37q5 -6 14 -15t13 -13.5t10.5 -14.5t7.5 -19t3.5 -26.5t-1.5 -36.5q12 0 18.5 -2.5t6 -7t-4.5 -9.5zM252 254 q14 32 14 60q0 21 -15 21q-5 0 -10 -6.5t-5 -17.5q0 -38 16 -57zM76 81q0 -42 24 -42q20 0 48 27.5t55 77.5q25 43 33 72q-50 31 -61 81q-31 -30 -57 -75q-42 -78 -42 -141zM626 155q9 16 19 15t16 -15q11 -25 -10 -66q-23 -45 -65 -74.5t-83 -29.5q-93 0 -102 127 q-75 -64 -119 -119q-14 -16 -26 -16q-14 0 -13 22q2 38 63 105q34 36 85 77q-24 157 -38 192q-5 14 2.5 18.5t26.5 4.5q29 0 49.5 -22t29.5 -57q5 -22 13 -70q79 69 129 135q14 19 27.5 17.5t13.5 -25.5q0 -36 -56 -102q-29 -35 -107 -90l18 -105q9 -49 26 -49 q18 0 48.5 39.5t52.5 87.5z"></glyph><glyph glyph-name="o_y" unicode="oy" d="M356 -359q-39 -15 -68 23q-30 42 -30 83q0 20 9 47q43 119 209 186l15 35q-38 -28 -82 -28q-35 0 -53.5 23t-18.5 57t13 70q16 41 31 73q-43 -13 -59 -9q-17 -67 -62 -127.5t-99 -79.5q-18 -6 -36 -6q-59 0 -98 51q-28 37 -28 87q0 64 42 140q34 61 79.5 95.5t94.5 34.5 q39 0 66 -37q17 -20 26.5 -34t16.5 -37t5 -50q28 7 54 27.5t35.5 32t32.5 40.5l33 48q21 28 39 2q19 -27 19 -48q0 -35 -35 -91q-46 -74 -74 -142q-30 -76 3 -76q36 0 120 142q36 60 71.5 127t46.5 83q21 26 38 9q19 -19 19 -51t-18 -67q-90 -173 -122 -248q105 64 158 138 q10 13 19.5 15t12.5 -8q10 -32 -14 -68q-48 -74 -201 -137q-27 -66 -45 -105t-46.5 -92t-58 -84.5t-60.5 -43.5zM253 254q14 32 14 60q0 21 -15 21q-5 0 -10 -6.5t-5 -17.5q0 -38 16 -57zM77 81q0 -42 24 -42q20 0 48 27.5t55 77.5q25 43 33 72q-50 31 -61 81 q-32 -30 -57 -75q-42 -78 -42 -141zM450 -85q-65 -45 -103 -115q-18 -34 -24 -63t2 -34q5 -4 19.5 15t36.5 57q31 55 69 140z"></glyph><glyph glyph-name="r_r" unicode="rr" d="M708 154q13 -28 -4 -67q-19 -44 -66 -73.5t-92 -29.5q-47 0 -73 28.5t-26 74.5q0 53 27.5 101.5t79.5 109.5q-37 -15 -76 -17q-21 -54 -46 -102t-56.5 -94.5t-70 -74t-76.5 -27.5q-43 0 -69.5 29.5t-26.5 72.5q0 25 8 55q18 61 100 158q-34 -15 -77 -17q-5 -9 -41 -68 q-97 -165 -112 -239q-3 -14 -13 -17.5t-24 9.5q-26 26 -26 60q0 37 23 78q13 25 95 144l33 48q-20 17 -20 38q0 38 37 82.5t63 44.5q31 0 31 -37q0 -34 -20 -82q42 11 85 42q16 9 24.5 9.5t18.5 -8.5q31 -33 31 -68q0 -20 -16 -39q-88 -98 -110 -168q-7 -20 -7 -44 q0 -42 20 -42q39 0 91.5 78t93.5 187q-29 14 -29 47q0 37 33.5 81t59.5 44q33 0 33 -39q0 -32 -17 -81q46 12 88 43q24 20 43 1q29 -33 29 -68q0 -22 -16 -39q-84 -98 -109 -168q-8 -24 -8 -44q0 -42 24 -42q25 0 62 39t60 91q7 16 16.5 16.5t17.5 -16.5z"></glyph><glyph glyph-name="s_r" unicode="sr" d="M641 154q11 -25 -5 -67q-19 -44 -66 -73.5t-93 -29.5t-72 28.5t-26 73.5q0 29 8 54q22 64 100 159q-40 -16 -76 -18q-20 -49 -37 -85.5t-43 -79t-53.5 -69.5t-64.5 -45.5t-79 -18.5q-93 0 -136 79q-17 29 -17 65q0 50 33 75q34 26 37 -9q43 56 93 140q5 47 37 77 q19 17 39 21t29 -6q15 -16 -6 -50l-9 -15q-1 -13 -1 -40q0 -45 5 -93q5 -61 4 -98q-2 -39 -10 -59q60 63 121 219q-29 15 -29 47q0 38 34.5 81.5t60.5 43.5q31 0 31 -39q0 -31 -16 -81q38 9 88 42q31 19 44 2q28 -36 28 -67q0 -20 -16 -40q-87 -101 -110 -168q-7 -26 -7 -44 q0 -43 22 -43q27 0 64 39t59 92q7 15 17 15.5t18 -15.5zM147 146q0 46 -4 88q-32 -54 -81 -121q10 -36 25.5 -59t31.5 -23q28 0 28 115z"></glyph><glyph glyph-name="t_r" unicode="tr" d="M592 154q12 -29 -4 -67q-19 -45 -64.5 -74.5t-91.5 -29.5t-72.5 29.5t-26.5 73.5q0 24 10 54q21 64 99 158q-38 -16 -78 -18q-56 -125 -129 -210t-148 -85q-41 0 -70 30.5t-29 81.5q0 39 18 83q40 91 100 199q-44 8 -58 29q-9 14 -3.5 22t24.5 7q33 -3 62 1q23 29 82 120 q8 12 16 15.5t15 -1t11 -15.5q8 -21 8 -37q0 -32 -17 -73q13 -2 23 -8.5t14 -12t10 -15.5q6 -11 -1.5 -17t-22.5 -6h-54l-21 -35q-71 -120 -110 -205q-17 -42 -17 -74q0 -23 7.5 -36.5t20.5 -13.5q41 0 103.5 78t106.5 187q-25 15 -25 43q0 37 36 83t62 46q33 0 33 -35 q0 -37 -21 -85q41 9 86 42q28 19 42 1q31 -38 31 -68q0 -19 -16 -39q-88 -98 -111 -168q-6 -17 -6 -43q0 -43 22 -43q26 0 61.5 38.5t58.5 92.5q7 15 17.5 16t16.5 -16z"></glyph><glyph glyph-name="t_t" unicode="tt" d="M-1 96q0 41 19 84q33 80 99 199q-42 8 -58 30q-21 28 21 28q41 0 70 1q33 58 73 115q28 36 42 -1q8 -21 8 -38q0 -33 -18 -72q10 0 45.5 2.5t73.5 4.5q57 94 71 113q26 35 42 -2q8 -19 8 -39q0 -30 -18 -70q41 -8 56 -33q15 -27 -21 -27q-8 0 -28.5 0.5t-36.5 0.5 q-81 -131 -132 -243q-18 -40 -18 -75q0 -51 27 -51q28 0 62.5 40t63.5 98q6 12 14.5 16.5t16 0t10.5 -17.5q5 -24 -10 -59q-17 -36 -62.5 -76t-104.5 -40q-29 0 -53.5 18t-35.5 47q-57 -65 -128 -65q-42 0 -70 30.5t-28 80.5zM340 387q-107 -8 -119 -8q-67 -100 -125 -230 q-18 -41 -18 -74q0 -52 29 -52q27 0 62 43t60 99q36 84 111 222z"></glyph><glyph glyph-name="u_r" unicode="ur" d="M752 155q11 -25 -5 -67q-19 -44 -66 -73.5t-91 -29.5q-47 0 -73.5 29t-26.5 73q0 53 28.5 103t79.5 109q-40 -16 -76 -18q-22 -54 -46 -100.5t-55.5 -93t-69 -73.5t-75.5 -27q-88 0 -94 68q-60 -67 -127 -67q-30 0 -51 24t-21 56q0 28 13 69q45 128 136 249q21 27 40 0 q17 -26 17 -47q0 -35 -33 -90q-64 -110 -76 -142q-12 -29 -12 -52q0 -24 8 -24q22 0 58.5 41.5t75.5 104.5q33 54 69 122q30 57 51 87q20 25 41 6q16 -20 16 -50q0 -33 -16 -65q-5 -11 -21 -38.5t-20 -34.5q-35 -55 -50 -93q-15 -33 -15 -58t15 -25q39 0 91 77t93 184 q-29 15 -29 47q0 38 34.5 82t59.5 44q32 0 32 -39q0 -31 -16 -81q44 11 88 42q29 20 44 2q28 -34 28 -68q0 -20 -16 -40q-82 -93 -109 -167q-7 -26 -7 -45q0 -42 22 -42q26 0 63 39t59 92q7 15 17 15.5t18 -15.5z"></glyph><glyph glyph-name="u_r_r" unicode="urr" d="M691 277q-56 -64 -86.5 -113.5t-30.5 -96.5q0 -44 22 -44q39 0 92 78.5t94 187.5q-30 15 -30 46q0 38 35 81.5t60 43.5q30 0 30 -38q0 -29 -15 -81q43 12 88 43q26 19 43 1q30 -39 30 -68q0 -20 -17 -40q-87 -96 -109 -168q-7 -21 -7 -44q0 -42 22 -42q27 0 67 39.5 t63 90.5q7 15 16.5 16t17.5 -15q14 -28 -4 -67q-19 -44 -69.5 -74t-96.5 -30q-44 0 -71.5 30t-27.5 75q0 22 8 51q17 64 97 158q-36 -15 -72 -17q-122 -297 -250 -297q-46 0 -72 28.5t-26 73.5q0 27 8 54q20 66 99 159q-36 -16 -75 -18q-53 -127 -121 -211.5t-134 -84.5 q-38 0 -60 18.5t-25 52.5q-62 -68 -127 -68q-38 0 -55.5 22.5t-17.5 58.5q0 33 11 69q31 98 137 247q22 28 42 0q16 -24 16 -45q0 -34 -34 -90q-40 -62 -75 -144q-10 -30 -10 -53t6 -23q40 0 134 148q2 3 71 123q29 55 49 84q19 28 41 6q17 -17 17 -50t-16 -65 q-21 -41 -45 -79q-22 -35 -41.5 -80t-19.5 -65q0 -25 14 -25q37 0 91 79.5t93 183.5q-29 15 -29 46q0 37 34 81t60 44q32 0 32 -38q0 -33 -17 -82q44 9 89 44q25 18 42 1q30 -36 30 -69q0 -20 -15 -39z"></glyph><glyph glyph-name="u_x" unicode="ux" d="M465 150q-16 194 -23 226q-3 13 5.5 18t25.5 3q27 -5 47 -30.5t26 -70.5q4 -32 6 -60q75 78 128 152q8 11 17.5 15t16 -2t5.5 -22q-1 -27 -42 -83q-36 -52 -120 -133q1 -46 7 -86q7 -48 20 -48q21 0 49.5 40t52.5 91q7 14 20 12t16 -18q7 -33 -14 -70q-26 -47 -64.5 -73 t-78.5 -26q-43 0 -65.5 23.5t-29.5 77.5q-128 -101 -198 -101q-34 0 -56.5 18t-28.5 47q-56 -63 -123 -63q-33 0 -52.5 23.5t-19.5 57.5q0 33 13 69q44 123 136 249q19 25 42 -1q15 -17 15 -45q0 -34 -34 -91q-50 -84 -75 -142q-12 -29 -12 -52q0 -24 8 -24q45 0 135 146 q28 46 70 125q34 62 49 84q21 29 41 6q17 -20 17 -52t-16 -64q-7 -15 -47.5 -85t-50.5 -97q-14 -35 -14 -52q0 -16 9 -16q49 0 187 124z"></glyph><glyph glyph-name="y_r" unicode="yr" d="M227 26q136 82 209 264q-24 16 -24 43q0 38 36 83t62 45q31 0 31 -36q0 -30 -19 -84q39 10 85 42q28 18 43 2q30 -34 30 -69q0 -20 -15 -39q-87 -94 -111 -167q-6 -21 -6 -44q0 -43 22 -43q26 0 63 39t61 92q6 14 17.5 15t18.5 -15q9 -32 -5 -67q-19 -44 -67 -73.5 t-94 -29.5t-72.5 29.5t-26.5 74.5q0 27 7 52q20 64 98 157q-35 -13 -72 -17q-52 -116 -117 -191t-179 -123q-27 -66 -45 -105t-46.5 -92t-58 -84.5t-60.5 -43.5q-39 -15 -68 23q-30 42 -30 83q0 20 9 47q43 119 209 186l15 35q-38 -28 -82 -28q-35 0 -53.5 23t-18.5 57 t13 70q48 131 134 249q21 28 39 2q19 -27 19 -48q0 -35 -35 -91q-46 -74 -74 -142q-30 -76 3 -76q36 0 120 142q36 60 71.5 127t46.5 83q21 26 38 9q19 -19 19 -51t-18 -67q-90 -173 -122 -248zM86 -85q-65 -45 -103 -115q-18 -34 -24 -63t2 -34q5 -4 19.5 15t36.5 57 q31 55 69 140z"></glyph><glyph glyph-name="alphagreek_taugreek" unicode="ατ" d="M95 30q46 0 131 145q56 98 56 143q0 19 -9 19q-18 0 -62 -43.5t-81 -101.5q-47 -76 -47 -132q0 -30 12 -30zM479 -15q-66 0 -82 50q-53 -53 -112 -53q-73 0 -87 63q-61 -59 -114 -59q-43 0 -67 28.5t-24 73.5q0 72 54 149q56 81 113.5 121.5t100.5 40.5q52 0 66 -44 l20 31q20 30 41 7q16 -20 16 -52t-16 -64q-5 -9 -41.5 -69.5t-52.5 -99.5q-16 -35 -16 -62q0 -24 13 -24q24 0 62.5 48.5t59.5 89.5q43 85 91 157q-34 0 -62 17t-28 49q0 13 20 13q5 0 21 -1.5t22 -1.5q18 0 54 3t60 3q39 0 72 -16t33 -50q0 -15 -20 -15q-8 0 -28 2.5 t-28 2.5q-26 0 -37 -1q0 -30 -13 -54q-9 -21 -41 -79.5t-41 -78.5q-14 -36 -14 -60q0 -25 14 -25q28 0 66 40t63 91q5 10 15 10t16 -10.5t6 -22.5q0 -25 -9 -43q-22 -46 -71 -75.5t-95 -29.5z"></glyph><glyph glyph-name="alphagreek_taugreek_zetagreek" unicode="ατζ" d="M570 -300q-25 0 -46 25q-34 40 -34 76q0 23 10 44q44 98 188 162q-5 22 -29 59q-2 4 -6.5 11t-6.5 11q-22 -45 -70.5 -74t-94.5 -29q-66 0 -82 50q-53 -53 -112 -53q-73 0 -87 63q-61 -59 -114 -59q-43 0 -67 28.5t-24 73.5q0 72 54 149q56 81 113.5 121.5t100.5 40.5 q52 0 66 -44l20 31q20 30 41 7q16 -20 16 -52t-16 -64q-5 -9 -41.5 -69.5t-52.5 -99.5q-16 -35 -16 -62q0 -24 13 -24q24 0 62.5 48.5t59.5 89.5q46 93 91 159q-34 0 -62 17t-28 49q0 13 20 13q5 0 21 -1.5t22 -1.5q19 0 45.5 3t45.5 3q32 0 61.5 -20.5t29.5 -50.5 q0 -10 -12 -10q-3 0 -26 3t-38 1q0 -32 -13 -56q-9 -21 -41 -79.5t-41 -78.5q-14 -36 -14 -60q0 -25 14 -25q28 0 65.5 39.5t62.5 89.5q-3 12 -3 25q0 45 21.5 91t50.5 80.5t75 72t78.5 59.5t77.5 49q-61 -10 -120 -10q-45 0 -68 20t-23 41q0 13 23 13q51 0 152 12 q50 7 63 7q30 0 38 -19l21 -46q6 -12 6 -20q0 -17 -27 -33q-43 -25 -85.5 -58.5t-86.5 -78t-71.5 -98.5t-27.5 -105q0 -23 28 -81q2 -4 7.5 -17t8.5 -20q90 51 124 119q5 10 12 10t14.5 -9.5t7.5 -20.5q0 -17 -16 -45q-27 -50 -131 -96q1 -4 1 -13q0 -44 -37 -112.5 t-84.5 -119.5t-76.5 -51zM97 30q46 0 131 145q56 98 56 143q0 19 -9 19q-18 0 -62 -43.5t-81 -101.5q-47 -76 -47 -132q0 -30 12 -30zM640 -134q43 66 49 95q-51 -31 -89 -83q-14 -19 -25.5 -45t-16 -44.5t-1.5 -21.5q4 -4 31 28.5t52 70.5z"></glyph><glyph glyph-name="gammagreek_gammagreek" unicode="γγ" d="M521 117q61 91 198 266q14 17 32 17q20 0 20 -21q0 -15 -8.5 -33t-17 -30t-28.5 -36.5t-29 -36.5q-3 -4 -44.5 -51.5t-79.5 -100t-75 -117.5q-36 -62 -86 -182q-5 -13 -20 -13q-14 0 -24 13l-7 6q-8 7 -11 13.5t-3 17.5q0 23 22 73q96 214 96 402q0 28 -7 28 q-14 0 -80 -85q-115 -144 -192 -273q-32 -54 -86 -182q-5 -13 -20 -13q-14 0 -24 13l-7 6q-8 7 -11 13.5t-3 17.5q0 25 23 73q95 215 95 402q0 38 -7 38q-21 0 -69 -97q-6 -12 -18 -12q-20 0 -20 27q0 46 43 89t88 43q77 0 77 -87q0 -78 -29 -188q72 110 137 193 q64 82 119 82q85 0 85 -87q0 -80 -29 -188z"></glyph><glyph glyph-name="epsilongreek_taugreek" unicode="ετ" d="M550 90q-22 -46 -70 -75.5t-94 -29.5q-39 0 -61 18.5t-26 50.5q-81 -69 -185 -69q-51 0 -90 26t-39 76q0 40 29 73.5t75 49.5q-42 20 -42 61q0 50 60.5 87.5t122.5 37.5q17 0 30 -8q45 -28 58 -57q7 -14 7 -25q0 -10 -20 -67q-6 -15 -20 -15q-22 0 -35.5 20.5t-13.5 41.5 q0 19 8 40q7 19 -4 19q-36 0 -68 -29t-32 -52q0 -31 23 -31q3 0 8 1h5q15 0 32 -15t17 -23q0 -6 -13 -9q-133 -32 -133 -110q0 -26 12.5 -39.5t34.5 -13.5q53 0 109 42t82 91q59 109 92 159q-33 0 -64 15.5t-31 50.5q0 13 19 13q5 0 21 -1.5t22 -1.5q31 0 67.5 3.5t53.5 3.5 q39 0 72 -16t33 -50q0 -15 -20 -15q-7 0 -25 2.5t-31 2.5q-7 0 -19 -0.5t-17 -0.5q0 -35 -46 -117q-34 -60 -49 -95q-14 -36 -14 -60q0 -25 14 -25q27 0 65 40t62 91q4 9 14 9q24 0 24 -31q0 -24 -10 -44z"></glyph><glyph glyph-name="iotagreek_taugreek" unicode="ιτ" d="M267 -15q-64 0 -82 48q-53 -48 -115 -48q-44 0 -66 23t-22 62q0 27 12 66q18 50 57 123.5t69 114.5q21 28 40 7q16 -17 17.5 -45.5t-16.5 -67.5q-9 -21 -41 -79.5t-41 -78.5q-14 -36 -14 -60q0 -25 15 -25q25 0 55.5 32t55.5 78q25 69 99 181q-39 3 -63.5 21.5 t-24.5 45.5q0 13 19 13q5 0 21 -1.5t22 -1.5q31 0 64.5 3t50.5 3q39 0 72 -16t33 -50q0 -15 -20 -15q-7 0 -25 2.5t-31 2.5q-7 0 -19.5 -0.5t-17.5 -0.5q0 -35 -46 -117q-34 -60 -49 -95q-14 -36 -14 -60q0 -25 14 -25q27 0 63.5 40t61.5 91q5 9 14 9q24 0 24 -31 q0 -24 -10 -44q-22 -46 -69 -75.5t-93 -29.5z"></glyph><glyph glyph-name="kappagreek_taugreek" unicode="κτ" d="M462 -15q-70 0 -85 57q-62 -60 -124 -60q-60 0 -101.5 50.5t-41.5 144.5q-53 -89 -92 -178q-6 -13 -20 -13q-10 0 -20 10q-18 20 -18 52q0 22 9 52q13 42 61.5 130.5t96.5 158.5q7 10 19 10q17 0 24.5 -20.5t7.5 -37.5q0 -23 -9 -50q-10 -30 -32 -68q93 82 208 149 q17 11 32 11q23 0 23 -20q0 -15 -15 -37.5t-37 -38.5q-106 -78 -146 -123q4 -59 22.5 -99t43.5 -40t69.5 51t62.5 91q28 65 88 152q-32 3 -56 19.5t-24 46.5q0 12 20 12q5 0 21 -1t22 -1q30 0 64 2t49 2q39 0 72 -16t33 -50q0 -15 -20 -15q-5 0 -17 2q-29 5 -86 1 q0 -28 -12 -53q-7 -14 -26 -48.5t-34 -63t-22 -46.5q-15 -34 -15 -60q0 -25 15 -25q28 0 71 40.5t66 87.5q5 12 15 12q9 0 18 -11.5t9 -22.5q0 -17 -12 -41q-21 -45 -75.5 -75t-101.5 -30z"></glyph><glyph glyph-name="pigreek_pigreek" unicode="ππ" d="M328 402q39 0 72 -16t33 -50q0 -15 -20 -15q-4 0 -18 2q-33 3 -38 3q0 -40 -46 -121q-63 -112 -63 -155q0 -25 14 -25q27 0 65 40t63 91q33 61 101 169q-60 15 -60 64q0 12 19 12q5 0 16.5 -1.5t16.5 -1.5q37 0 117 3t123 3q39 0 72 -16t33 -50q0 -15 -20 -15 q-9 0 -28.5 2.5t-27.5 2.5h-21q3 -31 -11 -60q-12 -25 -34 -63q-36 -63 -48 -95q-15 -34 -15 -60q0 -25 15 -25q28 0 67.5 40.5t63.5 90.5q5 9 15 9q18 0 18 -31q0 -20 -12 -44q-22 -46 -69 -75.5t-93 -29.5q-44 0 -66 23t-22 62q0 28 13 66q24 70 106 190q-62 -4 -88 -4 q-3 -16 -11 -32l-151 -292v1q-6 -13 -19 -13q-22 0 -34 35q-50 -36 -103 -36q-44 0 -66 23t-22 62q0 27 12 66q28 76 105 187q-11 -1 -41.5 -4t-45.5 -3q-2 -11 -10 -26l-151 -292q-7 -12 -20 -12q-17 0 -26.5 19t-9.5 37q0 24 12 58q21 63 117 212q-34 2 -60 18.5t-26 48.5 q0 13 20 13q5 0 15 -1.5t18 -1.5q22 0 132 7q73 6 122 6z"></glyph><glyph glyph-name="pigreek_taugreek" unicode="πτ" d="M657 90q-22 -47 -65.5 -76t-88.5 -29q-44 0 -66 23t-22 62q0 27 12 66q23 63 99 178q-29 0 -59 16t-30 52q0 13 19 13q10 0 29.5 -1.5t28.5 -1.5q19 0 72.5 6t67.5 6q39 0 72 -16t33 -50q0 -15 -20 -15q-7 0 -25 2.5t-31 2.5q-7 0 -39 -3t-37 -3q0 -35 -46 -117 q-34 -60 -49 -95q-14 -36 -14 -60q0 -25 14 -25q27 0 59 38.5t58 92.5q5 9 14 9q24 0 24 -31q0 -24 -10 -44zM392 90q-23 -48 -59.5 -76.5t-79.5 -28.5q-44 0 -66 23t-22 62q0 27 12 66q28 76 105 187q-11 -1 -41.5 -4t-45.5 -3q-2 -11 -10 -26l-151 -292q-7 -12 -20 -12 q-17 0 -26.5 19t-9.5 37q0 24 12 58q21 63 117 212q-34 2 -60 18.5t-26 48.5q0 13 20 13q5 0 15 -1.5t18 -1.5q22 0 132 7q98 8 121 8q39 0 72.5 -16t33.5 -50q0 -15 -19 -15q-11 0 -25.5 2.5t-32.5 2.5q1 -4 1 -10q0 -31 -46 -113q-63 -112 -63 -155q0 -25 14 -25 q18 0 37.5 22t32 44.5t32.5 64.5q4 9 13 9q25 0 25 -32q0 -23 -10 -43z"></glyph><glyph glyph-name="rhogreek_lambda" unicode="ρλ" d="M270 347q-27 0 -73.5 -54.5t-71.5 -111.5q-21 -53 -21 -93q0 -47 24 -47q22 0 54.5 40.5t62.5 101.5q36 74 36 131q0 33 -11 33zM130 -212q-76 0 -121 44t-45 118q0 117 54.5 229t132.5 175q50 39 104 39q48 0 79 -29t31 -74q0 -107 -76 -205t-148 -98q-56 0 -82 44 q-9 -50 -9 -105q0 -36 20 -67t55 -31q50 0 91.5 35.5t69.5 85.5q48 88 99 221q43 114 106.5 170t127.5 56q51 0 72 -42q20 38 45 81.5t32 57.5q11 21 11 39q0 14 -7.5 24.5t-19.5 10.5q-24 0 -84 -62q-24 -27 -66 -27q-49 0 -49 15q0 4 4 9q33 44 83.5 80t94.5 36 q50 0 86.5 -30.5t36.5 -78.5q0 -35 -32 -97q-101 -177 -223 -418q-7 -13 -20 -13q-3 0 -31.5 8.5t-40.5 14.5q-4 1 -1 8q16 31 111 209q27 52 27 84t-21 32q-26 0 -68.5 -46.5t-80.5 -142.5q-24 -60 -40.5 -97t-50 -93t-66.5 -88.5t-83.5 -57t-107.5 -24.5z"></glyph><glyph glyph-name="rhogreek_xigreek" unicode="ρξ" d="M269 347q-27 0 -73.5 -54.5t-71.5 -111.5q-21 -53 -21 -93q0 -47 24 -47q22 0 54.5 40.5t62.5 101.5q36 74 36 131q0 33 -11 33zM346 -290q-16 -10 -32 -10q-25 0 -46 25q-34 40 -34 76v4q-53 -34 -104 -34q-75 0 -121 51.5t-46 127.5q0 117 54.5 229t132.5 175 q50 39 104 39q48 0 79 -29t31 -74q0 -107 -76 -205t-148 -98q-56 0 -82 44q-9 -50 -9 -105q0 -38 22 -77.5t56 -39.5q20 0 38.5 5.5t37 19t29 22t31 28.5t24.5 24q55 60 145 99q-8 20 -26 46q-42 63 -42 108q0 57 35.5 98.5t94.5 62.5q-39 11 -58.5 35.5t-19.5 53.5 q0 74 75 139.5t159 65.5q21 0 36 -9q44 -25 58 -55q7 -13 7 -29q0 -23 -22 -71t-23 -51q-6 -15 -15 -15q-10 0 -18 4q-37 18 -37 57q0 36 22 74q13 24 13 34q0 8 -4 8q-37 0 -97 -56.5t-60 -108.5q0 -40 56 -40q15 0 36.5 -22.5t21.5 -33.5q0 -8 -12 -12 q-77 -25 -115.5 -58.5t-38.5 -86.5q0 -19 8 -39t33 -68q78 44 117 119q4 9 16 9q20 0 20 -28q0 -24 -12 -47q-27 -50 -129 -95q1 -4 1 -13q0 -59 -54 -147.5t-112 -125.5zM384 -134q43 66 49 95q-50 -30 -85 -78q-47 -65 -47 -116q25 8 83 99z"></glyph><glyph glyph-name="rhogreek_zetagreek" unicode="ρζ" d="M269 347q-27 0 -73.5 -54.5t-71.5 -111.5q-21 -53 -21 -93q0 -47 24 -47q22 0 54.5 40.5t62.5 101.5q36 74 36 131q0 33 -11 33zM514 -17q0 -44 -37 -112.5t-84.5 -119.5t-76.5 -51q-25 0 -46 25q-34 43 -34 80q-64 -34 -107 -34q-75 0 -120.5 51.5t-45.5 127.5 q0 117 54.5 229t132.5 175q50 39 104 39q48 0 79 -29t31 -74q0 -107 -76 -205t-148 -98q-56 0 -82 44q-9 -50 -9 -105q0 -38 21.5 -77.5t55.5 -39.5q11 0 22.5 2.5t23.5 8t20.5 10t22.5 14.5t19 14t20 16.5t18 14.5q52 69 162 118q-5 22 -29 59q0 1 -8 14.5t-9.5 16.5 t-8 14.5t-8 17t-5 15.5t-4.5 18t-1 17q0 45 21.5 91t50.5 80.5t75 72t78.5 59.5t77.5 49q-61 -10 -120 -10q-45 0 -68 20t-23 41q0 13 23 13q51 0 152 12q50 7 63 7q30 0 38 -19l21 -46q6 -12 6 -20q0 -17 -27 -33q-43 -25 -85.5 -58.5t-86.5 -78t-71.5 -98.5t-27.5 -105 q0 -23 28 -81q2 -4 7.5 -17t8.5 -20q76 43 114 119q5 10 12 10t14.5 -9.5t7.5 -20.5q0 -17 -16 -45q-30 -56 -121 -96q1 -4 1 -13zM386 -134q43 66 49 95q-51 -31 -89 -83q-14 -19 -25.5 -45t-16 -44.5t-1.5 -21.5q4 -4 31 28.5t52 70.5z"></glyph><glyph glyph-name="sigmagreek_taugreek" unicode="στ" d="M467 313q-9 -1 -29 -1q-29 0 -83 8q-63 9 -82 9q-37 0 -66 -13q-61 -26 -96 -100t-35 -138q0 -43 22 -43q21 0 49.5 27.5t55.5 78.5q11 17 19 37q-45 19 -45 62q0 23 21 36.5t47 13.5q34 0 54.5 -24t20.5 -55q0 -10 -1 -14q22 0 22 -10q0 -6 -10 -13.5t-21 -9.5 q-24 -71 -76.5 -125t-109.5 -54q-43 0 -84.5 36.5t-41.5 101.5q0 98 74.5 185t174.5 87q13 0 61 -6q50 -8 73 -8q39 0 103 11q44 7 74 7q39 0 72 -16t33 -50q0 -15 -20 -15q-17 0 -51.5 2.5t-41.5 1.5q0 -29 -13 -54q-20 -40 -33 -63q-29 -48 -49 -95q-15 -34 -15 -60 q0 -25 15 -25q27 0 65.5 40t62.5 88q5 12 16 12t17.5 -9.5t6.5 -21.5q0 -19 -11 -44q-23 -46 -71.5 -75.5t-95.5 -29.5q-44 0 -66 23t-22 62q0 28 13 66q29 79 97 177zM237 209q12 33 12 38q0 7 -8 7q-13 0 -13 -19q0 -17 9 -26z"></glyph><glyph glyph-name="taugreek_taugreek" unicode="ττ" d="M115 25q21 0 49.5 27t44 49t39.5 59q33 75 142 234q-11 -1 -35 -1q-35 0 -63 16.5t-28 49.5q0 13 20 13q5 0 21 -1.5t22 -1.5q30 0 79 4t65 4q39 0 72.5 -16.5t33.5 -50.5q0 -14 -21 -14q-10 0 -29 2t-26 2q-18 0 -44 -2q2 -14 2 -18q0 -16 -14 -44q-21 -44 -49 -90 q-88 -155 -88 -196q0 -25 15 -25q27 0 65 40t62 91q4 9 16 9q11 0 17 -11t6 -23q0 -19 -11 -41q-22 -46 -70 -75.5t-95 -29.5q-65 0 -83 51q-57 -51 -125 -51q-44 0 -66 23t-22 62q0 27 12 66q24 67 99 180q-8 -1 -27 -1q-34 0 -62.5 17t-28.5 50q0 13 19 13q5 0 21 -1.5 t22 -1.5q31 0 79.5 3.5t65.5 3.5q39 0 72 -16t33 -50q0 -15 -20 -15q-7 0 -25 2.5t-31 2.5q-7 0 -19.5 -0.5t-17.5 -0.5q0 -35 -46 -117q-34 -60 -49 -95q-14 -36 -14 -60q0 -25 15 -25z"></glyph><glyph glyph-name="taugreek_zetagreek" unicode="τζ" d="M226 -290q-18 -10 -32 -10q-24 0 -46 25q-34 43 -34 76q0 21 11 44q44 99 187 162q-5 25 -42 83q-25 -43 -73 -74t-92 -31t-66 23t-22 62q0 28 13 66q23 63 101 182q-4 0 -14 -0.5t-16 -0.5q-34 0 -62 17t-28 50q0 12 19 12h94q9 1 31.5 3t32.5 2q38 0 67 -14.5t29 -48.5 q0 -15 -21 -15q-12 0 -30 -0.5t-23 -0.5q0 -28 -13 -54q-3 -6 -37.5 -70.5t-44.5 -87.5q-15 -35 -15 -60t15 -25q26 0 62 39.5t67 93.5q-2 14 -2 21q0 45 21 91t50.5 80.5t74.5 72t78 59.5t77 49q-69 -10 -120 -10q-45 0 -68 20.5t-23 40.5q0 13 22 13q65 0 138.5 9.5 t76.5 9.5q29 0 38 -19l22 -46q6 -12 6 -20q0 -17 -28 -33q-42 -25 -84.5 -58.5t-86 -78t-70.5 -98.5t-27 -105q0 -29 25 -81q12 -24 17 -37q81 46 118 119q5 9 14 9t16 -9.5t7 -19.5q0 -21 -13 -46q-27 -48 -131 -95v-13q0 -59 -54 -147t-112 -126zM264 -134q43 66 49 95 q-51 -31 -89 -83q-14 -19 -25.5 -45t-16 -44.5t-1.5 -21.5q4 -4 31 28.5t52 70.5z"></glyph><glyph glyph-name="chigreek_lambda" unicode="χλ" d="M495 148q-159 -391 -292 -391q-40 0 -40 23q0 10 21 16q50 14 91 92q25 44 56 113q-28 -17 -57 -17q-50 0 -73 32t-29 96q-69 -58 -120 -120q-12 -14 -28 -14t-13 22q4 41 62 104q18 20 88 80q-25 158 -32 158q-17 0 -63 -97q-6 -13 -18 -14t-17 12q-8 20 6 57 q13 36 49 64.5t73 28.5q30 0 48 -17.5t26 -57.5q8 -38 12 -67q82 70 129 130q9 12 18 16.5t15 -1.5t6 -21q0 -42 -56 -103q-22 -25 -102 -90q13 -94 15 -104q11 -49 25 -49q34 0 92 125q5 11 13 14l1 2q44 114 107.5 170t126.5 56q51 0 72 -42q20 38 45 81.5t32 57.5 q11 21 11 39q0 14 -7.5 24.5t-19.5 10.5q-24 0 -84 -62q-24 -27 -66 -27q-49 0 -49 15q0 4 4 9q33 44 83.5 80t94.5 36q50 0 86.5 -30.5t36.5 -78.5q0 -35 -32 -97q-101 -177 -223 -418q-7 -13 -20 -13q-3 0 -31.5 8.5t-40.5 14.5q-4 1 -1 8q16 31 111 209q27 52 27 84 t-21 32q-26 0 -68 -46.5t-80 -142.5z"></glyph><glyph glyph-name="alphatonosgreek_taugreek" unicode="άτ" d="M356 556q19 29 68 29q29 0 29 -14q0 -5 -6 -13q-78 -102 -90 -112q-26 -22 -52 -22q-22 0 -22 10q0 5 4 11t25 42t44 69zM95 30q46 0 131 145q56 98 56 143q0 19 -9 19q-18 0 -62 -43.5t-81 -101.5q-47 -76 -47 -132q0 -30 12 -30zM479 -15q-66 0 -82 50 q-53 -53 -112 -53q-73 0 -87 63q-61 -59 -114 -59q-43 0 -67 28.5t-24 73.5q0 72 54 149q56 81 113.5 121.5t100.5 40.5q52 0 66 -44l20 31q20 30 41 7q16 -20 16 -52t-16 -64q-5 -9 -41.5 -69.5t-52.5 -99.5q-16 -35 -16 -62q0 -24 13 -24q24 0 62.5 48.5t59.5 89.5 q43 85 91 157q-34 0 -62 17t-28 49q0 13 20 13q5 0 21 -1.5t22 -1.5q18 0 54 3t60 3q39 0 72 -16t33 -50q0 -15 -20 -15q-8 0 -28 2.5t-28 2.5q-26 0 -37 -1q0 -30 -13 -54q-9 -21 -41 -79.5t-41 -78.5q-14 -36 -14 -60q0 -25 14 -25q28 0 66 40t63 91q5 10 15 10t16 -10.5 t6 -22.5q0 -25 -9 -43q-22 -46 -71 -75.5t-95 -29.5z"></glyph><glyph glyph-name="alphatonosgreek_taugreek_zetagreek" unicode="άτζ" d="M356 556q19 29 68 29q29 0 29 -14q0 -5 -6 -13q-78 -102 -90 -112q-26 -22 -52 -22q-22 0 -22 10q0 5 4 11t25 42t44 69zM570 -300q-25 0 -46 25q-34 40 -34 76q0 23 10 44q44 98 188 162q-5 22 -29 59q-2 4 -6.5 11t-6.5 11q-22 -45 -70.5 -74t-94.5 -29q-66 0 -82 50 q-53 -53 -112 -53q-73 0 -87 63q-61 -59 -114 -59q-43 0 -67 28.5t-24 73.5q0 72 54 149q56 81 113.5 121.5t100.5 40.5q52 0 66 -44l20 31q20 30 41 7q16 -20 16 -52t-16 -64q-5 -9 -41.5 -69.5t-52.5 -99.5q-16 -35 -16 -62q0 -24 13 -24q24 0 62.5 48.5t59.5 89.5 q46 93 91 159q-34 0 -62 17t-28 49q0 13 20 13q5 0 21 -1.5t22 -1.5q19 0 45.5 3t45.5 3q32 0 61.5 -20.5t29.5 -50.5q0 -10 -12 -10q-3 0 -26 3t-38 1q0 -32 -13 -56q-9 -21 -41 -79.5t-41 -78.5q-14 -36 -14 -60q0 -25 14 -25q28 0 65.5 39.5t62.5 89.5q-3 12 -3 25 q0 45 21.5 91t50.5 80.5t75 72t78.5 59.5t77.5 49q-61 -10 -120 -10q-45 0 -68 20t-23 41q0 13 23 13q51 0 152 12q50 7 63 7q30 0 38 -19l21 -46q6 -12 6 -20q0 -17 -27 -33q-43 -25 -85.5 -58.5t-86.5 -78t-71.5 -98.5t-27.5 -105q0 -23 28 -81q2 -4 7.5 -17t8.5 -20 q90 51 124 119q5 10 12 10t14.5 -9.5t7.5 -20.5q0 -17 -16 -45q-27 -50 -131 -96q1 -4 1 -13q0 -44 -37 -112.5t-84.5 -119.5t-76.5 -51zM97 30q46 0 131 145q56 98 56 143q0 19 -9 19q-18 0 -62 -43.5t-81 -101.5q-47 -76 -47 -132q0 -30 12 -30zM640 -134q43 66 49 95 q-51 -31 -89 -83q-14 -19 -25.5 -45t-16 -44.5t-1.5 -21.5q4 -4 31 28.5t52 70.5z"></glyph><glyph glyph-name="epsilontonosgreek_taugreek" unicode="έτ" d="M286 556q19 29 68 29q29 0 29 -14q0 -5 -6 -13q-78 -102 -90 -112q-26 -22 -52 -22q-22 0 -22 10q0 5 4 11t25 42t44 69zM550 90q-22 -46 -70 -75.5t-94 -29.5q-39 0 -61 18.5t-26 50.5q-81 -69 -185 -69q-51 0 -90 26t-39 76q0 40 29 73.5t75 49.5q-42 20 -42 61 q0 50 60.5 87.5t122.5 37.5q17 0 30 -8q45 -28 58 -57q7 -14 7 -25q0 -10 -20 -67q-6 -15 -20 -15q-22 0 -35.5 20.5t-13.5 41.5q0 19 8 40q7 19 -4 19q-36 0 -68 -29t-32 -52q0 -31 23 -31q3 0 8 1h5q15 0 32 -15t17 -23q0 -6 -13 -9q-133 -32 -133 -110q0 -26 12.5 -39.5 t34.5 -13.5q53 0 109 42t82 91q59 109 92 159q-33 0 -64 15.5t-31 50.5q0 13 19 13q5 0 21 -1.5t22 -1.5q31 0 67.5 3.5t53.5 3.5q39 0 72 -16t33 -50q0 -15 -20 -15q-7 0 -25 2.5t-31 2.5q-7 0 -19 -0.5t-17 -0.5q0 -35 -46 -117q-34 -60 -49 -95q-14 -36 -14 -60 q0 -25 14 -25q27 0 65 40t62 91q4 9 14 9q24 0 24 -31q0 -24 -10 -44z"></glyph><glyph glyph-name="iotadieresistonosgreek_taugreek" unicode="ΐτ" d="M226 556q26 29 67 29q22 0 22 -14q0 -5 -6 -13q-79 -103 -89 -112q-29 -23 -45 -23q-22 0 -22 13q0 4 4 9t8 12.5t10 18.5t10 18t10.5 19t13.5 22t17 21zM285 417q-15 0 -24.5 9.5t-9.5 23.5q0 20 14 37.5t36 17.5q15 0 25.5 -10t10.5 -24q0 -19 -15.5 -36.5t-36.5 -17.5 zM108 417q-15 0 -24.5 9.5t-9.5 23.5q0 20 14 37.5t36 17.5q15 0 25.5 -10t10.5 -24q0 -19 -15.5 -36.5t-36.5 -17.5zM267 -15q-64 0 -82 48q-53 -48 -115 -48q-44 0 -66 23t-22 62q0 27 12 66q18 50 57 123.5t69 114.5q21 28 40 7q16 -17 17.5 -45.5t-16.5 -67.5 q-9 -21 -41 -79.5t-41 -78.5q-14 -36 -14 -60q0 -25 15 -25q25 0 55.5 32t55.5 78q25 69 99 181q-39 3 -63.5 21.5t-24.5 45.5q0 13 19 13q5 0 21 -1.5t22 -1.5q31 0 64.5 3t50.5 3q39 0 72 -16t33 -50q0 -15 -20 -15q-7 0 -25 2.5t-31 2.5q-7 0 -19.5 -0.5t-17.5 -0.5 q0 -35 -46 -117q-34 -60 -49 -95q-14 -36 -14 -60q0 -25 14 -25q27 0 63.5 40t61.5 91q5 9 14 9q24 0 24 -31q0 -24 -10 -44q-22 -46 -69 -75.5t-93 -29.5z"></glyph><glyph glyph-name="iotatonosgreek_taugreek" unicode="ίτ" d="M231 556q19 29 68 29q29 0 29 -14q0 -5 -6 -13q-78 -102 -90 -112q-26 -22 -52 -22q-22 0 -22 10q0 5 4 11t25 42t44 69zM267 -15q-64 0 -82 48q-53 -48 -115 -48q-44 0 -66 23t-22 62q0 27 12 66q18 50 57 123.5t69 114.5q21 28 40 7q16 -17 17.5 -45.5t-16.5 -67.5 q-9 -21 -41 -79.5t-41 -78.5q-14 -36 -14 -60q0 -25 15 -25q25 0 55.5 32t55.5 78q25 69 99 181q-39 3 -63.5 21.5t-24.5 45.5q0 13 19 13q5 0 21 -1.5t22 -1.5q31 0 64.5 3t50.5 3q39 0 72 -16t33 -50q0 -15 -20 -15q-7 0 -25 2.5t-31 2.5q-7 0 -19.5 -0.5t-17.5 -0.5 q0 -35 -46 -117q-34 -60 -49 -95q-14 -36 -14 -60q0 -25 14 -25q27 0 63.5 40t61.5 91q5 9 14 9q24 0 24 -31q0 -24 -10 -44q-22 -46 -69 -75.5t-93 -29.5z"></glyph><glyph glyph-name="iotadieresisgreek_taugreek" unicode="ϊτ" d="M223 419q-15 8 -20 23t3 32q9 18 26.5 27.5t32.5 2.5q33 -15 17 -54q-9 -19 -26.5 -28.5t-32.5 -2.5zM117 418q-14 6 -19.5 22t1.5 33q9 19 25.5 27.5t32.5 1.5q14 -6 19.5 -21t-2.5 -33q-8 -17 -25 -26t-32 -4zM267 -15q-64 0 -82 48q-53 -48 -115 -48q-44 0 -66 23 t-22 62q0 27 12 66q18 50 57 123.5t69 114.5q21 28 40 7q16 -17 17.5 -45.5t-16.5 -67.5q-9 -21 -41 -79.5t-41 -78.5q-14 -36 -14 -60q0 -25 15 -25q25 0 55.5 32t55.5 78q25 69 99 181q-39 3 -63.5 21.5t-24.5 45.5q0 13 19 13q5 0 21 -1.5t22 -1.5q31 0 64.5 3t50.5 3 q39 0 72 -16t33 -50q0 -15 -20 -15q-7 0 -25 2.5t-31 2.5q-7 0 -19.5 -0.5t-17.5 -0.5q0 -35 -46 -117q-34 -60 -49 -95q-14 -36 -14 -60q0 -25 14 -25q27 0 63.5 40t61.5 91q5 9 14 9q24 0 24 -31q0 -24 -10 -44q-22 -46 -69 -75.5t-93 -29.5z"></glyph><glyph glyph-name="acyrillic_checyrillic" unicode="ач" d="M540 280q-42 -117 -107.5 -202t-140.5 -91q-38 -2 -62 14.5t-30 47.5q-56 -60 -114 -60q-43 0 -66.5 28t-23.5 75q0 72 52 147q56 81 113 120.5t101 39.5q49 0 64 -42q4 6 19 29q22 27 40 7t18 -52q0 -31 -15 -62q-7 -16 -23.5 -44.5t-19.5 -34.5q-43 -77 -49 -91 q-15 -41 -15 -57q0 -26 15 -24q44 5 97.5 80t87.5 181q-30 15 -30 47q0 37 34.5 80.5t59.5 45.5q15 1 23 -8.5t8 -26.5q0 -29 -17 -85q44 11 89 42q15 10 23.5 11t19.5 -10q29 -31 29 -67q0 -19 -15 -40q-88 -100 -110 -168q-7 -21 -7 -44q0 -40 23 -42q26 -2 62 39t61 97 q5 12 15.5 11t16.5 -16q14 -28 -3 -67q-20 -46 -66.5 -76t-91.5 -28q-47 1 -73 30t-26 74q0 24 8 53q19 62 99 157q-37 -16 -73 -18zM282 319q0 19 -6 19q-21 0 -64.5 -41.5t-81.5 -102.5q-45 -72 -45 -131q0 -30 11 -30q48 0 130 144q56 99 56 142z"></glyph><glyph glyph-name="acyrillic_gecyrillic" unicode="аг" d="M566 277q-60 -90 -93 -140q-50 -77 -93 -113.5t-96 -36.5q-71 0 -84 62q-58 -60 -114 -60q-43 0 -66.5 28t-23.5 75q0 70 53 147q56 81 112.5 120.5t101.5 39.5q48 0 63 -42q15 26 23 34t20 8q34 0 34 -58q0 -37 -57 -141q-64 -116 -64 -148q0 -24 13 -24q19 0 43.5 20 t53 57t50 69t49.5 77q54 86 90 115t80 29q35 0 60.5 -26t25.5 -57t-55 -108q-46 -66 -54 -89q-15 -37 -15 -57q0 -34 18 -34q26 0 63.5 39.5t67.5 92.5q6 10 16 10t16 -8.5t6 -19.5q0 -23 -14 -48q-21 -41 -71 -74.5t-93 -33.5q-49 0 -74 23t-25 63q0 30 18 68q14 32 65 108 q39 53 39 74q0 24 -15 24q-31 0 -74 -65zM282 319q0 19 -9 19q-20 0 -62.5 -42t-79.5 -102q-46 -71 -46 -131q0 -30 12 -30q45 0 129 144q56 97 56 142z"></glyph><glyph glyph-name="acyrillic_hacyrillic" unicode="ах" d="M466 151q-15 185 -23 225q-3 14 6.5 19.5t25.5 1.5q63 -14 72 -100q4 -36 6 -60q75 78 128 152q12 16 26.5 15t13.5 -24q-1 -28 -42 -84q-41 -59 -121 -133q6 -71 9 -85q8 -48 18 -48q24 0 58.5 40.5t54.5 86.5q7 15 20.5 14.5t16.5 -16.5q7 -33 -13 -70 q-24 -45 -68.5 -72t-87.5 -28q-41 -1 -64 23.5t-31 78.5q-125 -102 -197 -102q-69 0 -80 59q-54 -54 -111 -54q-42 0 -65.5 27.5t-23.5 73.5q0 70 52 149q54 81 111.5 120.5t102.5 39.5q52 0 65 -44l19 30q21 32 42 7q16 -18 16 -51q0 -32 -16 -64q-6 -12 -44.5 -77 t-55.5 -100q-16 -34 -16 -56q0 -19 9 -19q51 1 187 125zM94 33q49 0 130 144q56 100 56 141q0 19 -6 19q-20 0 -64 -42t-82 -100q-46 -77 -46 -132q0 -30 12 -30z"></glyph><glyph glyph-name="acyrillic_zecyrillic" unicode="аз" d="M543 235q-60 -78 -93 -125q-44 -65 -83 -94t-85 -29q-69 0 -82 62q-58 -60 -114 -60q-43 0 -66.5 28t-23.5 75q0 70 53 147q56 81 112.5 120.5t101.5 39.5q48 0 63 -42q5 8 12.5 18t7.5 11q9 13 23 13q16 0 25 -16.5t9 -41.5q0 -8 -1.5 -17t-5.5 -20t-7 -19t-9.5 -21 l-10 -20t-12 -22.5t-11.5 -21.5q-3 -5 -10.5 -19t-10.5 -19.5t-9.5 -18t-9.5 -19t-7.5 -16.5t-7 -16.5t-5 -14.5t-3.5 -14t-1 -11q0 -24 11 -24q33 0 106 109q82 124 140 190q62 71 133 71q46 0 74.5 -28t28.5 -71q0 -41 -45 -97t-112 -102q22 -5 40 -21t25 -39 q58 38 99 117q5 9 15 9q21 0 21 -28q0 -24 -12 -47q-31 -52 -119 -93q-1 -74 -58.5 -166.5t-109.5 -121.5q-17 -10 -33 -10q-24 0 -46 25q-34 43 -34 76q0 21 11 44q49 105 200 167q5 50 -16 50q-37 0 -77 -27q-23 -17 -33 5q-5 11 -5 26q0 43 43 68q88 50 134.5 100.5 t46.5 90.5q0 8 -5 14.5t-14 6.5q-63 0 -148 -111zM282 319q0 19 -10 19q-19 0 -61.5 -42t-79.5 -102q-46 -74 -46 -131q0 -30 13 -30q45 0 129 144q55 95 55 142zM607 -41q-63 -39 -105 -98q-17 -24 -24 -47t-3.5 -36t13.5 -13q18 0 62 71q33 54 57 123z"></glyph><glyph glyph-name="vecyrillic_checyrillic" unicode="вч" d="M114 -15q-49 0 -83 40.5t-34 103.5q0 73 80 233q-27 0 -45 5.5t-24 11.5t-6 11q0 12 22 12q49 0 81 4q113 227 213 283q11 6 21 6q32 0 51 -29q22 -32 22 -76q0 -49 -51.5 -105.5t-160.5 -94.5l-11 -20q28 17 59 17q35 0 60 -35t25 -83q0 -34 -15.5 -81t-28.5 -66 q29 27 43 47q44 54 65 105q-28 24 -28 39q0 37 36.5 78.5t62.5 42.5q31 0 31 -36q0 -25 -17 -76q59 6 113 43q25 16 41 0q28 -28 28 -64q0 -23 -15 -39q-112 -133 -112 -200q0 -40 19 -40q24 0 62.5 43.5t63.5 90.5q5 10 16 10q12 0 18 -9t6 -18q0 -20 -9 -41 q-16 -42 -68 -79.5t-93 -37.5q-47 0 -73.5 27.5t-26.5 69.5q0 72 111 204q-50 -18 -104 -20q-37 -65 -79 -116q-53 -66 -130 -113.5t-136 -47.5zM232 454q63 43 94 87q31 41 31 77q0 9 -4 9q-13 0 -57 -65q-30 -45 -64 -108zM247 295q0 42 -16 42q-43 0 -101 -89 q-54 -84 -54 -161q0 -50 19 -50q48 0 100 90t52 168z"></glyph><glyph glyph-name="vecyrillic_gecyrillic" unicode="вг" d="M114 -15q-49 0 -83 40.5t-34 103.5q0 73 83 233q-57 0 -74 19q-4 5 -4 9q0 12 22 12q49 0 81 4l13 26q117 211 200 257q11 6 21 6q32 0 51 -29q22 -32 22 -76q0 -117 -175 -186l-38 -15l-10 -19q28 17 59 17q35 0 60 -35t25 -83q0 -41 -9.5 -72t-32.5 -73 q21 18 38.5 39.5t41 54t38.5 51.5q25 31 39.5 48t36.5 38t43.5 30.5t44.5 9.5q35 0 60 -26t25 -57q0 -22 -8 -38q-8 -15 -46 -70q-43 -60 -55 -89q-15 -37 -15 -57q0 -34 19 -34q26 0 62.5 39.5t65.5 92.5q6 10 19 10q11 0 16.5 -9t5.5 -19q0 -22 -13 -48q-22 -42 -72 -75 t-94 -33q-48 0 -73 23t-25 63q0 33 17 68q18 41 66 108q39 56 39 74q0 22 -13 22q-23 0 -75 -68q-43 -59 -95 -121q-60 -71 -132 -118.5t-138 -47.5zM232 454q63 43 94 87q31 41 31 77q0 9 -4 9q-13 0 -57 -65q-30 -45 -64 -108zM247 295q0 42 -16 42q-43 0 -101 -89 q-55 -86 -55 -161q0 -50 20 -50q48 0 100 90t52 168z"></glyph><glyph glyph-name="vecyrillic_hardsigncyrillic" unicode="въ" d="M114 -15q-49 0 -83 40.5t-34 103.5q0 73 83 233q-57 0 -74 19q-4 5 -4 9q0 12 22 12q49 0 81 4l13 26q117 210 200 257q11 6 21 6q32 0 51 -29q22 -34 22 -76q0 -22 -9 -48q-22 -50 -61.5 -81t-142.5 -72l-10 -19q28 17 59 17q35 0 60 -35t25 -83q0 -26 -4 -45 q30 39 41 61q-24 18 -24 38q0 36 36 73.5t63 37.5q29 0 29 -36q0 -24 -15 -64q35 0 115 57q10 7 23 7q14 0 22 -8q32 -34 32 -66q0 -12 -7.5 -24t-23.5 -31t-25 -33q14 3 25 3q33 0 59.5 -24t26.5 -53q0 -72 -53.5 -126.5t-129.5 -54.5q-45 0 -73.5 24.5t-28.5 72.5 q0 76 114 217q-46 -22 -100 -24q-25 -35 -105.5 -127.5t-110.5 -115.5q-56 -43 -105 -43zM232 454q63 43 94 87q31 41 31 77q0 9 -4 9q-13 0 -57 -65q-30 -45 -64 -108zM247 295q0 42 -16 42q-43 0 -101 -89q-55 -86 -55 -161q0 -50 20 -50q48 0 100 90t52 168zM617 159 q0 33 -20 33q-22 0 -40 -10q-48 -67 -48 -121q0 -37 21 -37q23 0 55 41.5t32 93.5z"></glyph><glyph glyph-name="decyrillic_checyrillic" unicode="дч" d="M91 32q43 0 129 144q55 92 55 143q0 18 -9 18q-19 0 -61 -41.5t-80 -102.5q-46 -72 -46 -131q0 -30 12 -30zM-78 -252q0 20 9 47q20 60 76 107.5t135 79.5l12 33q-37 -27 -76 -27q-41 0 -65 28.5t-24 73.5q0 72 54 148q56 81 112 120.5t100 39.5q51 0 64 -42q11 18 19 29 q22 30 42 6q15 -19 15 -47q0 -32 -18 -68q-91 -183 -119 -244q134 80 204 257q-24 15 -24 43q0 38 36 83t62 46q31 0 31 -35q0 -33 -19 -85q45 14 86 42q15 10 23 11t19 -10q31 -38 31 -68q0 -19 -17 -39q-87 -99 -110 -168q-7 -20 -7 -43q0 -43 23 -43q26 0 63 39t60 92 q7 15 17 16t17 -16q12 -29 -5 -67q-18 -45 -65.5 -74.5t-92.5 -29.5q-46 0 -72.5 29t-26.5 74q0 21 10 54q21 66 99 158q-40 -17 -77 -19q-52 -116 -116 -189.5t-176 -120.5q-55 -129 -104.5 -213.5t-106.5 -109.5q-41 -17 -69 23q-29 44 -29 79zM113 -84q-55 -41 -92 -98 q-15 -24 -25 -51.5t-11 -41.5t3 -17q15 0 60 77q35 64 65 131z"></glyph><glyph glyph-name="decyrillic_gecyrillic" unicode="дг" d="M-90 -252q0 20 9 47q20 60 76 107.5t135 79.5l13 33q-39 -27 -77 -27q-41 0 -64.5 28.5t-23.5 73.5q0 73 53 148q56 81 112 120.5t100 39.5q50 0 65 -42q15 25 18 29q23 31 42 6q15 -19 15 -47q0 -36 -18 -68q-57 -106 -119 -243q101 61 192 205q21 34 37 55t40 48 t51 40.5t55 13.5q35 0 60.5 -26t25.5 -57t-55 -108q-69 -101 -69 -146q0 -34 19 -34q26 0 64.5 40t66.5 92q6 10 16 10q11 0 17 -9t6 -19q0 -23 -14 -48q-21 -41 -71.5 -74.5t-94.5 -33.5q-49 0 -74 23t-25 63q0 30 18 68q20 43 64 106q38 52 38 74q0 24 -11 24 q-15 0 -37.5 -21t-36 -39.5t-37.5 -53.5q-24 -36 -43 -61.5t-55 -67t-80.5 -74.5t-93.5 -54q-55 -129 -104.5 -213.5t-106.5 -109.5q-41 -17 -68 23q-30 42 -30 79zM79 32q43 0 129 144q56 93 56 143q0 18 -9 18q-19 0 -61.5 -42t-80.5 -102q-46 -72 -46 -131q0 -30 12 -30z M101 -87q-58 -42 -94 -101q-21 -36 -30.5 -67t-1.5 -38q7 -5 24.5 15.5t40.5 61.5q36 63 61 129z"></glyph><glyph glyph-name="decyrillic_hardsigncyrillic" unicode="дъ" d="M79 32q45 0 129 144q56 93 56 143q0 18 -8 18q-19 0 -62 -42t-80 -102q-46 -70 -46 -131q0 -30 11 -30zM567 398q0 -33 -16 -66q41 5 116 59q10 7 23 7q14 0 22 -8q31 -31 31 -66q0 -24 -48 -80q-5 -5 -7 -8q14 3 25 3q33 0 59.5 -24t26.5 -53q0 -72 -53.5 -126.5 t-129.5 -54.5q-45 0 -73.5 24.5t-28.5 72.5q0 76 115 218q-52 -23 -107 -25q-1 -2 -23 -36.5t-31 -46.5t-33 -45t-43 -51.5t-47 -44t-59.5 -44.5t-66.5 -34q-55 -129 -104.5 -213.5t-106.5 -109.5q-41 -18 -68 23q-30 42 -30 79q0 70 62.5 132.5t157.5 101.5l13 32 q-37 -26 -76 -26q-42 0 -65.5 28.5t-23.5 73.5q0 74 54 148q55 81 111.5 120.5t99.5 39.5q50 0 65 -42q3 5 18 29q23 31 42 6q15 -19 15 -47q0 -33 -17 -67q-15 -32 -57 -114t-63 -130q22 14 46 35.5t39 36.5t40.5 47.5t32.5 42t34.5 48.5t27.5 40q-27 21 -27 40 q0 36 35.5 73.5t62.5 37.5q30 0 30 -36zM710 159q0 33 -20 33q-23 0 -40 -10q-48 -67 -48 -121q0 -37 20 -37q24 0 56 41.5t32 93.5zM101 -84q-55 -41 -92 -98q-15 -24 -25 -51.5t-11 -41.5t3 -17q15 0 60 77q35 64 65 131z"></glyph><glyph glyph-name="iecyrillic_checyrillic" unicode="еч" d="M123 216l-9 -18q12 -6 22 -6q32 0 73 56q22 28 35 57.5t6 35.5q-9 7 -31 -7.5t-49.5 -47t-46.5 -70.5zM681 157q13 -28 -5 -67q-18 -45 -65 -75t-93 -30t-72 28.5t-26 74.5q0 25 10 55q22 69 96 156q-34 -15 -74 -17q-65 -136 -144 -215t-167 -80q-67 -1 -105 38t-38 100 q0 55 30 115q37 73 91.5 115.5t99.5 42.5q21 0 34 -8q41 -26 62 -52q9 -16 9 -33q0 -51 -42 -105q-49 -61 -111 -61q-39 0 -71 22q-9 -30 -9 -59q0 -35 12.5 -55.5t33.5 -20.5q69 0 140.5 81t116.5 185q-28 17 -28 44q0 38 37 82t64 45q29 0 29 -35q0 -27 -19 -84 q35 9 87 42q29 18 42 1q30 -39 30 -69q0 -20 -17 -38q-85 -99 -110 -169q-7 -23 -7 -43q0 -43 22 -43q27 0 63.5 39t59.5 92q7 15 16.5 16t17.5 -15z"></glyph><glyph glyph-name="iecyrillic_gecyrillic" unicode="ег" d="M131 216l-9 -18q12 -6 22 -6q28 0 73 56q41 51 41 86q0 9 -6 9q-21 0 -57.5 -37t-63.5 -90zM468 273q-24 -34 -52.5 -75t-40.5 -56q-113 -155 -228 -155q-67 0 -104 38.5t-37 99.5q0 55 30 115q37 73 91.5 115.5t99.5 42.5q21 0 34 -8q45 -28 62 -52q9 -12 9 -33 q0 -51 -42 -105q-49 -61 -111 -61q-39 0 -71 22q-9 -30 -9 -59q0 -35 13 -55.5t37 -20.5q78 0 177 137q47 64 96 136q69 96 141 96q35 0 60.5 -26t25.5 -57t-55 -108q-46 -67 -55 -89q-14 -39 -14 -57q0 -34 18 -34q26 0 62.5 39.5t65.5 92.5q6 11 16 11q9 0 15 -10t6 -19 q0 -25 -13 -48q-23 -42 -70.5 -75t-91.5 -33q-48 0 -73 23t-25 63q0 29 17 68q18 41 66 108q39 56 39 74q0 22 -15 22q-26 0 -74 -67z"></glyph><glyph glyph-name="iecyrillic_hacyrillic" unicode="ех" d="M119 212l-7 -14q14 -6 24 -6q28 0 72 57q22 29 35 57.5t6 35.5q-9 7 -31.5 -8t-50.5 -48t-48 -74zM90 103q0 -33 18 -54t45 -21q81 0 220 120q-10 157 -25 227q-3 13 6 18.5t26 2.5q60 -15 72 -102q4 -25 6 -63q49 53 132 158q8 10 17.5 14t16.5 -2t5 -22q-3 -27 -44 -85 q-48 -62 -121 -134q2 -30 4.5 -55t2.5 -27q5 -48 20 -48q21 0 55.5 42t55.5 89q6 13 18.5 10.5t17.5 -15.5q10 -28 -14 -71q-25 -46 -68 -73t-85 -27q-79 0 -92 101q-130 -99 -229 -99q-72 0 -112 38.5t-40 102.5q0 54 29 112q37 72 91.5 115t99.5 43q22 0 35 -8 q43 -25 60 -51q10 -17 10 -34q0 -52 -42 -105q-47 -62 -111 -62q-37 0 -72 22q-8 -30 -8 -57z"></glyph><glyph glyph-name="iecyrillic_zecyrillic" unicode="ез" d="M322 416q-15 8 -20 23t3 32q9 18 26.5 27.5t32.5 2.5q33 -15 17 -54q-9 -19 -26.5 -28.5t-32.5 -2.5zM216 415q-14 6 -19.5 22t1.5 33q9 19 25.5 27.5t32.5 1.5q14 -6 19.5 -21t-2.5 -33q-8 -17 -25 -26t-32 -4zM177 286q-37 -42 -54 -88q11 -6 21 -6q28 0 73 56 q41 51 41 86q0 9 -6 9q-12 0 -33 -15.5t-42 -41.5zM459 245q-7 -9 -15.5 -20t-27 -35t-39.5 -51q-58 -75 -110.5 -113.5t-119.5 -38.5t-104 38.5t-37 99.5q0 56 31 115q36 73 90.5 115.5t99.5 42.5q21 0 34 -8q42 -26 62 -52q9 -12 9 -33q0 -51 -42 -105q-49 -61 -111 -61 q-39 0 -71 22q-9 -30 -9 -59q0 -34 13 -55t37 -21q45 0 86.5 34.5t91.5 99.5q9 13 33 49t45.5 65.5t47.5 56.5q62 67 130 67q53 0 82 -39q18 -27 18 -60q0 -93 -157 -199q20 -4 38 -20t26 -40q60 39 100 117q5 9 18 9q21 0 21 -20q0 -27 -16 -55q-29 -52 -118 -93 q-1 -74 -59 -166.5t-110 -121.5q-17 -10 -32 -10q-24 0 -46 25q-34 40 -34 76q0 21 11 44q49 105 200 167q5 22 0 36t-17 14q-11 0 -40.5 -16t-51.5 -16q-14 0 -17 10q-5 20 -5 37q0 32 43 57q88 50 134.5 100.5t46.5 90.5q0 21 -16 21q-56 0 -143 -101zM509 -41 q-62 -46 -99 -98q-18 -25 -26 -47.5t-6 -35.5t12 -13q18 0 62 71q33 54 57 123z"></glyph><glyph glyph-name="zecyrillic_gecyrillic" unicode="зг" d="M-8 48q-15 0 -15 25q0 34 35 85q8 12 29 48t43 67t48 58q65 67 143 67q50 0 77 -39q21 -29 21 -60q0 -33 -25 -75q-48 -76 -123 -124q26 -5 52 -34q86 55 199 225q40 58 70 82.5t67 24.5t66 -25.5t29 -60.5q0 -25 -46.5 -90.5t-62.5 -106.5q-15 -37 -15 -57q0 -34 19 -34 q27 0 64.5 37.5t65.5 94.5q6 10 19 10q11 0 16.5 -9t5.5 -19q0 -22 -13 -48q-22 -41 -73 -74.5t-95 -33.5q-49 0 -74.5 23t-25.5 63q0 29 17 68q17 35 45.5 77t46.5 70t18 44q0 23 -17 23q-14 0 -30 -16.5t-43 -57.5q-39 -57 -89 -119q-59 -72 -146 -132q2 -14 2 -30 q0 -84 -58.5 -174.5t-112.5 -120.5q-15 -10 -32 -10q-24 0 -46 25q-34 43 -34 76q0 27 11 54q26 55 81.5 105.5t118.5 88.5q-5 23 -22 23q-31 1 -72 -27q-10 -5 -15 -5q-14 0 -17 11q-5 22 -6 25q-7 39 43 68q84 48 127.5 101.5t43.5 89.5q0 19 -13 19q-59 0 -120.5 -63.5 t-108.5 -146.5q-34 -58 -50 -77q-8 -9 -23 -9zM80 -230q0 -14 6 -14q12 1 58 77q44 73 71 146q-62 -52 -99 -111q-36 -56 -36 -98z"></glyph><glyph glyph-name="zecyrillic_hardsigncyrillic" unicode="зъ" d="M505 271q-41 -84 -83 -133q-55 -65 -127 -113q2 -14 2 -30q0 -84 -58.5 -174.5t-112.5 -120.5q-15 -10 -32 -10q-24 0 -46 25q-34 43 -34 76q0 27 11 54q26 55 81.5 105.5t118.5 88.5q-5 23 -22 23q-31 1 -72 -27q-10 -5 -15 -5q-14 0 -17 11q-5 22 -6 25q-7 39 43 68 q84 48 127.5 101.5t43.5 89.5q0 19 -13 19q-59 0 -120.5 -63.5t-108.5 -146.5q-34 -58 -50 -77q-8 -9 -23 -9t-15 25q0 34 35 85q8 12 29 48t43 67t48 58q65 67 143 67q50 0 77 -39q21 -29 21 -60q0 -33 -25 -75q-48 -76 -123 -124q26 -5 52 -34q54 40 96 92q44 60 70 125 q-27 21 -27 40q0 36 35.5 73.5t62.5 37.5q30 0 30 -36q0 -33 -16 -66q41 5 116 59q10 7 23 7q14 0 22 -8q31 -31 31 -66q0 -24 -48 -80q-5 -5 -7 -8q13 3 25 3q33 0 59.5 -24t26.5 -53q0 -72 -53.5 -126.5t-129.5 -54.5q-45 0 -73.5 24.5t-28.5 72.5q0 76 115 218 q-52 -24 -101 -25zM687 159q0 33 -20 33q-23 0 -40 -10q-48 -67 -48 -121q0 -37 20 -37q24 0 56 41.5t32 93.5zM80 -230q0 -14 6 -14q12 1 58 77q44 73 71 146q-62 -52 -99 -111q-36 -56 -36 -98z"></glyph><glyph glyph-name="iicyrillic_checyrillic" unicode="ич" d="M752 155q11 -25 -5 -67q-19 -44 -66 -73.5t-91 -29.5q-47 0 -73.5 29t-26.5 73q0 53 28.5 103t79.5 109q-40 -16 -76 -18q-22 -54 -46 -100.5t-55.5 -93t-69 -73.5t-75.5 -27q-88 0 -94 68q-60 -67 -127 -67q-30 0 -51 24t-21 56q0 28 13 69q45 128 136 249q21 27 40 0 q17 -26 17 -47q0 -35 -33 -90q-64 -110 -76 -142q-12 -29 -12 -52q0 -24 8 -24q22 0 58.5 41.5t75.5 104.5q33 54 69 122q30 57 51 87q20 25 41 6q16 -20 16 -50q0 -33 -16 -65q-5 -11 -21 -38.5t-20 -34.5q-35 -55 -50 -93q-15 -33 -15 -58t15 -25q39 0 91 77t93 184 q-29 15 -29 47q0 38 34.5 82t59.5 44q32 0 32 -39q0 -31 -16 -81q44 11 88 42q29 20 44 2q28 -34 28 -68q0 -20 -16 -40q-82 -93 -109 -167q-7 -26 -7 -45q0 -42 22 -42q26 0 63 39t59 92q7 15 17 15.5t18 -15.5z"></glyph><glyph glyph-name="iicyrillic_gecyrillic" unicode="иг" d="M444 127q-50 -74 -90 -109.5t-90 -35.5q-37 0 -58 20t-23 55q-62 -70 -123 -70q-41 0 -59.5 22.5t-18.5 58.5q0 34 13 69q43 123 135 250q7 10 22 10q17 0 26.5 -18.5t9.5 -35.5q0 -41 -33 -93q-44 -72 -75 -143q-13 -29 -13 -53t10 -24q38 0 134 148q27 45 65 115t56 95 q10 13 23 13q15 0 24.5 -19.5t9.5 -35.5q0 -15 -2 -28t-9 -29t-10.5 -23t-17 -29.5t-17.5 -30.5q-67 -106 -67 -154q0 -28 14 -28q17 0 37 16t45.5 52.5t40.5 60.5t45 74q23 39 45 74q34 52 65.5 73t72.5 21q35 0 60.5 -26t25.5 -57q0 -30 -54 -108q-43 -60 -55 -89 q-15 -37 -15 -57q0 -34 19 -34q26 0 63.5 40t66.5 92q6 10 17 10q9 0 15.5 -11t6.5 -20q0 -20 -14 -45q-21 -41 -71 -74.5t-94 -33.5q-48 0 -73.5 23t-25.5 63q0 30 18 68q16 36 65 108q40 55 40 74q0 24 -16 24q-30 0 -73 -65q-12 -17 -43 -69.5t-50 -80.5z"></glyph><glyph glyph-name="iicyrillic_hacyrillic" unicode="их" d="M465 150q-16 194 -23 226q-3 13 5.5 18t25.5 3q27 -5 47 -30.5t26 -70.5q4 -32 6 -60q75 78 128 152q8 11 17.5 15t16 -2t5.5 -22q-1 -27 -42 -83q-36 -52 -120 -133q1 -46 7 -86q7 -48 20 -48q21 0 49.5 40t52.5 91q7 14 20 12t16 -18q7 -33 -14 -70q-26 -47 -64.5 -73 t-78.5 -26q-43 0 -65.5 23.5t-29.5 77.5q-128 -101 -198 -101q-34 0 -56.5 18t-28.5 47q-56 -63 -123 -63q-33 0 -52.5 23.5t-19.5 57.5q0 33 13 69q44 123 136 249q19 25 42 -1q15 -17 15 -45q0 -34 -34 -91q-50 -84 -75 -142q-12 -29 -12 -52q0 -24 8 -24q45 0 135 146 q28 46 70 125q34 62 49 84q21 29 41 6q17 -20 17 -52t-16 -64q-7 -15 -47.5 -85t-50.5 -97q-14 -35 -14 -52q0 -16 9 -16q49 0 187 124z"></glyph><glyph glyph-name="iicyrillic_zecyrillic" unicode="из" d="M523 235q-48 -62 -93 -125q-45 -66 -83 -97t-83 -31q-37 0 -58 20t-23 55q-62 -70 -123 -70q-41 0 -59.5 22.5t-18.5 58.5q0 34 13 69q43 123 133 247q10 13 24 13q17 0 26.5 -18.5t9.5 -35.5q0 -41 -33 -93q-44 -72 -75 -143q-13 -29 -13 -53t10 -24q38 0 134 148 q29 46 66 116t55 94q11 13 23 13q15 0 24.5 -19t9.5 -36q0 -15 -2 -28t-9 -29t-10.5 -23t-17 -29.5t-17.5 -30.5q-30 -48 -52 -96q-17 -41 -17 -60q0 -26 9 -26q39 0 145 159q7 10 22.5 34.5t25.5 39.5t25 35t28 35q62 71 133 71q58 0 85 -39q19 -26 19 -60t-35 -81 q-48 -67 -123 -118q22 -5 40 -21t25 -39q58 38 99 117q5 9 15 9q9 0 15.5 -8.5t6.5 -19.5q0 -25 -13 -47q-31 -53 -118 -93q-1 -74 -59 -166.5t-110 -121.5q-17 -10 -32 -10q-25 0 -46 25q-35 42 -35 76q0 21 11 44q49 105 200 167q0 50 -21 50q-18 0 -50 -16t-37 -16 q-9 0 -15.5 11.5t-6.5 24.5q0 44 43 68q88 50 134 100.5t46 90.5q0 21 -16 21q-64 0 -151 -111zM459 -222q0 -12 7 -12q13 0 55 66q40 62 66 126q-59 -39 -95 -93q-33 -50 -33 -87z"></glyph><glyph glyph-name="ocyrillic_checyrillic" unicode="оч" d="M186 331q0 -30 -16 -62l-25 -50q37 8 62 15q22 57 75 109t115 52q22 0 35.5 -8.5t29.5 -28.5l16 -18q34 -39 34 -77q0 -13 -3 -23q29 12 53 50q-25 14 -25 42q0 38 37 82t63 45q30 0 30 -35q0 -29 -20 -84q42 10 86 43q12 9 25 9q12 0 19 -8q29 -36 29 -68q0 -22 -17 -40 q-86 -100 -108 -168q-8 -24 -8 -45q0 -41 25 -41q24 0 56 38.5t56 91.5q6 12 17 12q20 0 20 -39q0 -21 -9 -39q-49 -104 -143 -104q-50 0 -77 29t-27 75q0 26 9 54q6 19 38.5 72t60.5 86q-39 -17 -79 -19q-43 -70 -118 -78q-22 -84 -75 -149t-123 -65q-54 0 -89 41t-35 96 q0 29 5 50q-18 -5 -74 -16q-40 -80 -76 -158q-6 -12 -16 -12q-9 0 -17 8q-19 19 -19 53q0 29 13 61l15 36q-10 4 -10 15q0 23 30 36q51 113 98 178q10 13 23 13q16 0 25 -20t9 -37zM433 251q14 32 14 60q0 21 -15 21q-5 0 -10 -6.5t-5 -17.5q0 -38 16 -57zM258 80 q0 -44 20 -44q38 0 80 61.5t59 120.5q-48 30 -60 78q-35 -36 -57 -76q-42 -76 -42 -140z"></glyph><glyph glyph-name="ocyrillic_ercyrillic" unicode="ор" d="M446 90q0 -49 25 -49q20 1 52 41t61 99q36 75 36 131q0 32 -9 32q-16 0 -49 -30t-63 -81l-35 -57q-18 -49 -18 -86zM253 251q14 32 14 60q0 21 -15 21q-5 0 -10 -6.5t-5 -17.5q0 -38 16 -57zM77 78q0 -39 24 -39q21 0 49 28t53 74q25 48 36 80q-22 13 -39.5 33.5 t-24.5 41.5q-40 -43 -69 -103t-29 -115zM778 153q7 -34 -14 -69q-29 -48 -83 -77t-110 -29q-134 0 -173 78q-73 -135 -140 -285q-6 -15 -15.5 -16.5t-19.5 12.5q-14 22 -14 47q0 24 11 65q29 93 160 331q-26 -11 -58 -10q-21 -82 -77.5 -148t-121.5 -66q-58 0 -97 50 q-27 36 -27 86q0 68 42 141q35 61 80 95.5t94 34.5q40 0 66 -36q4 -5 11.5 -13.5t11 -12.5t9 -11.5t7.5 -12.5t5 -13t4 -15.5t1 -18.5t-1 -23q64 12 155 148q11 17 23 15.5t19 -18.5q5 -14 8 -28q42 34 83 34q35 0 57 -26q29 -30 29 -79q0 -60 -39 -142q-45 -88 -85 -121 q50 11 96.5 52t67.5 85q5 10 12.5 12.5t14 -2t8.5 -14.5z"></glyph><glyph glyph-name="ocyrillic_gecyrillic" unicode="ог" d="M325 239q27 11 65 59q44 56 70.5 76.5t63.5 20.5q36 0 62 -26.5t26 -56.5t-54 -108q-43 -60 -55 -89q-15 -37 -15 -57q0 -34 19 -34q26 0 62.5 39.5t65.5 92.5q6 10 19 10q11 0 16.5 -9t5.5 -19q0 -23 -14 -48q-21 -41 -71 -74.5t-94 -33.5q-48 0 -73.5 23t-25.5 63 q0 30 18 68q16 36 65 108q40 55 40 74q0 22 -13 22q-17 0 -67 -59q-1 -2 -12.5 -14.5t-13.5 -15t-12 -12.5t-14 -12.5t-14 -9.5t-17.5 -9t-18 -4.5t-21.5 -3.5q-21 -85 -72.5 -149t-125.5 -64q-59 0 -97 50q-27 39 -27 87q0 65 41 140q29 51 77 91t100 40q36 0 64 -37 l16 -18q34 -36 34 -77q0 -15 -3 -24zM246 251q14 32 14 60q0 21 -15 21q-5 0 -10 -6.5t-5 -17.5q0 -38 16 -57zM95 36q18 0 49 30.5t57 75.5q23 40 32 76q-47 29 -59 78q-31 -31 -58 -76q-42 -79 -42 -140q0 -44 21 -44z"></glyph><glyph glyph-name="ocyrillic_hacyrillic" unicode="ох" d="M347 215q-10 -11 -26 -14q-17 -67 -62 -127.5t-99 -79.5q-18 -6 -36 -6q-59 0 -98 51q-28 37 -28 87q0 64 42 140q34 61 79.5 95.5t94.5 34.5q39 0 66 -37q5 -6 14 -15t13 -13.5t10.5 -14.5t7.5 -19t3.5 -26.5t-1.5 -36.5q12 0 18.5 -2.5t6 -7t-4.5 -9.5zM252 254 q14 32 14 60q0 21 -15 21q-5 0 -10 -6.5t-5 -17.5q0 -38 16 -57zM76 81q0 -42 24 -42q20 0 48 27.5t55 77.5q25 43 33 72q-50 31 -61 81q-31 -30 -57 -75q-42 -78 -42 -141zM626 155q9 16 19 15t16 -15q11 -25 -10 -66q-23 -45 -65 -74.5t-83 -29.5q-93 0 -102 127 q-75 -64 -119 -119q-14 -16 -26 -16q-14 0 -13 22q2 38 63 105q34 36 85 77q-24 157 -38 192q-5 14 2.5 18.5t26.5 4.5q29 0 49.5 -22t29.5 -57q5 -22 13 -70q79 69 129 135q14 19 27.5 17.5t13.5 -25.5q0 -36 -56 -102q-29 -35 -107 -90l18 -105q9 -49 26 -49 q18 0 48.5 39.5t52.5 87.5z"></glyph><glyph glyph-name="ocyrillic_iicyrillic" unicode="ои" d="M802 157q5 -6 3 -26t-12 -40q-22 -44 -69 -76t-93 -32q-41 0 -64 20t-28 53q-63 -69 -129 -69q-37 0 -54 23t-17 58q0 33 12 69q13 38 29 68q-31 -11 -61 -11q-22 -78 -78 -142.5t-116 -64.5q-61 0 -99 51q-27 36 -27 88q0 68 41 139q29 51 75 88t90 41q46 3 76 -37 q2 -3 4.5 -5.5t5.5 -5t5 -4.5q37 -38 32 -108q63 11 122 97l37 54q18 27 39 3q18 -21 18 -48q0 -33 -33 -91q-50 -81 -76 -142q-11 -30 -11 -52q0 -24 12 -24q40 0 130 146q32 50 66.5 117t52.5 92q20 30 41 6q17 -20 17 -52t-16 -64q-7 -16 -42.5 -74.5t-48.5 -90.5 q-16 -34 -16 -59q0 -28 19 -28q25 0 63 40t66 92q7 14 16.5 14.5t17.5 -13.5zM253 251q14 32 14 60q0 21 -15 21q-5 0 -10 -6.5t-5 -17.5q0 -38 16 -57zM77 81q0 -42 21 -42q20 0 49.5 27.5t56.5 76.5q19 32 33 74q-19 13 -36.5 36t-24.5 44q-28 -27 -58 -77 q-41 -74 -41 -139z"></glyph><glyph glyph-name="ocyrillic_pecyrillic" unicode="оп" d="M781 157q14 -29 -5 -67q-20 -43 -68.5 -75t-95.5 -32q-48 0 -72 23t-24 63q0 28 13 66q13 36 74 142q7 12 17 33.5t8 21.5q-5 0 -19 -8.5t-39 -29.5t-51 -50q-61 -67 -140 -245q-5 -11 -14 -14t-22 9q-21 23 -21 54q0 22 11 52q17 50 48 110q-21 -10 -58 -10 q-22 -83 -76.5 -148t-123.5 -65q-60 0 -96 49q-27 39 -27 88q0 67 42 139q30 53 74.5 89.5t89.5 40.5q44 4 75 -35q8 -10 17 -19q17 -17 24.5 -38.5t7.5 -64.5q34 10 77 52t80 97q20 26 38 2q14 -23 14 -49q0 -12 -1 -18q79 73 125 73q21 0 38.5 -22.5t17.5 -50.5 q0 -21 -9 -40q-25 -48 -40 -71q-28 -44 -51 -93q-15 -33 -15 -58q0 -33 22 -33t58 40t66 92q6 11 15.5 11t15.5 -11zM252 251q14 32 14 60q0 21 -15 21q-5 0 -10 -6.5t-5 -17.5q0 -38 16 -57zM77 81q0 -44 23 -44q21 1 50 28.5t54 75.5q18 34 35 78q-46 29 -62 78 q-29 -29 -58 -77q-42 -73 -42 -139z"></glyph><glyph glyph-name="ocyrillic_tecyrillic" unicode="от" d="M252 251q14 32 14 60q0 21 -15 21q-5 0 -10 -6.5t-5 -17.5q0 -38 16 -57zM925 156q16 29 35 0q5 -5 4 -27.5t-10 -39.5q-21 -42 -72.5 -75t-96.5 -32q-49 1 -76.5 25.5t-27.5 65.5q0 33 15 64q20 45 72 126q41 61 38 62q-16 3 -89 -71q-36 -35 -69.5 -84.5t-52 -85 t-45.5 -92.5q-5 -12 -17 -15t-23 7q-20 20 -20 54q0 32 17 74q14 38 74 133q47 77 46 82q-4 2 -17 -6.5t-37.5 -30t-52.5 -52.5q-71 -78 -140 -242q-11 -23 -35 -5q-23 18 -23 53q0 23 9 53q13 42 51 114q-32 -12 -59 -11q-21 -84 -75 -149t-124 -65q-60 0 -97 50 q-27 38 -27 86q0 68 43 141q31 55 75 92.5t89 37.5q28 0 43.5 -7.5t31.5 -28.5q28 -32 38.5 -54.5t10.5 -65.5q64 10 154 149q8 12 19.5 12.5t19.5 -12.5q13 -23 13 -45q0 -11 -3 -28q82 80 130 80q24 0 38.5 -23t14.5 -55q35 30 71 51t57 20t32.5 -18.5t11.5 -42.5 q0 -28 -11 -53q-6 -15 -48 -85q-22 -32 -41 -72q-14 -28 -14 -53q0 -38 26 -38t60.5 38.5t63.5 93.5zM79 81q0 -44 21 -44q19 0 49 28t56 76q22 40 33 80q-48 29 -60 75q-32 -32 -58 -77q-41 -70 -41 -138z"></glyph><glyph glyph-name="ocyrillic_ucyrillic" unicode="оу" d="M356 -359q-39 -15 -68 23q-30 42 -30 83q0 20 9 47q43 119 209 186l15 35q-38 -28 -82 -28q-35 0 -53.5 23t-18.5 57t13 70q16 41 31 73q-43 -13 -59 -9q-17 -67 -62 -127.5t-99 -79.5q-18 -6 -36 -6q-59 0 -98 51q-28 37 -28 87q0 64 42 140q34 61 79.5 95.5t94.5 34.5 q39 0 66 -37q17 -20 26.5 -34t16.5 -37t5 -50q28 7 54 27.5t35.5 32t32.5 40.5l33 48q21 28 39 2q19 -27 19 -48q0 -35 -35 -91q-46 -74 -74 -142q-30 -76 3 -76q36 0 120 142q36 60 71.5 127t46.5 83q21 26 38 9q19 -19 19 -51t-18 -67q-90 -173 -122 -248q105 64 158 138 q10 13 19.5 15t12.5 -8q10 -32 -14 -68q-48 -74 -201 -137q-27 -66 -45 -105t-46.5 -92t-58 -84.5t-60.5 -43.5zM253 254q14 32 14 60q0 21 -15 21q-5 0 -10 -6.5t-5 -17.5q0 -38 16 -57zM77 81q0 -42 24 -42q20 0 48 27.5t55 77.5q25 43 33 72q-50 31 -61 81 q-32 -30 -57 -75q-42 -78 -42 -141zM450 -85q-65 -45 -103 -115q-18 -34 -24 -63t2 -34q5 -4 19.5 15t36.5 57q31 55 69 140z"></glyph><glyph glyph-name="ocyrillic_zecyrillic" unicode="оз" d="M575 346q-40 0 -106 -65q-79 -73 -149 -81q-17 -67 -61 -128t-99 -79q-15 -6 -39 -6q-60 0 -96 50q-28 38 -28 87q0 65 41 140q30 52 77.5 91.5t99.5 39.5q21 0 35 -8.5t30 -28.5l15 -18q34 -36 34 -77q0 -11 -3 -24q16 7 33.5 21t28.5 26t23 27t15 18q59 67 128 67 q56 0 85 -39q18 -25 18 -60t-34 -81q-48 -67 -123 -118q49 -10 65 -60q63 41 102 117q5 9 14 9q19 0 19 -26q0 -22 -14 -49q-32 -54 -116 -93q-1 -74 -59 -166.5t-110 -121.5q-17 -10 -33 -10q-24 0 -45 25q-35 42 -35 76q0 21 11 44q49 105 200 167q4 24 -1 37t-15 13 q-37 0 -77 -27q-8 -5 -17 -5q-11 0 -16 12t-5 24q0 43 43 68q88 50 134.5 100.5t46.5 90.5q0 21 -17 21zM247 251q14 32 14 60q0 21 -15 21q-5 0 -10 -6.5t-5 -17.5q0 -38 16 -57zM96 36q18 0 48.5 30.5t57.5 75.5q24 45 33 76q-48 29 -60 78q-34 -35 -58 -76 q-42 -79 -42 -140q0 -44 21 -44zM361 -222q0 -12 5 -12q18 0 66 80q36 60 57 112q-55 -36 -91 -87q-37 -53 -37 -93z"></glyph><glyph glyph-name="escyrillic_checyrillic" unicode="сч" d="M678 155q12 -26 -5 -67q-18 -45 -65 -74.5t-91 -29.5q-47 0 -73 28.5t-26 74.5q0 37 32.5 99t75.5 113q-40 -16 -78 -18q-58 -130 -139.5 -213t-171.5 -83q-67 0 -104.5 38.5t-37.5 99.5q0 55 30 115q38 74 91 116t99 42q22 0 35 -8q42 -25 59 -57q16 -34 -20 -107 q-16 -35 -18 -41q-6 -17 -11.5 -19.5t-24.5 6.5q-35 18 -35 58q0 18 23 71q20 41 15 45q-7 5 -27 -11t-46 -50.5t-46 -74.5q-30 -62 -30 -111q0 -32 12 -51.5t34 -20.5q68 -3 140.5 79t116.5 186q-28 13 -28 44q0 38 36.5 82t63.5 45q29 0 29 -35q0 -27 -19 -84q42 10 87 43 q27 20 44 1q28 -32 28 -68q0 -22 -17 -40q-88 -103 -108 -168q-8 -24 -8 -45q0 -39 23 -41q25 -2 61.5 37.5t59.5 92.5q4 10 10.5 14.5t12.5 1t11 -14.5z"></glyph><glyph glyph-name="ucyrillic_checyrillic" unicode="уч" d="M227 26q136 82 209 264q-24 16 -24 43q0 38 36 83t62 45q31 0 31 -36q0 -30 -19 -84q39 10 85 42q28 18 43 2q30 -34 30 -69q0 -20 -15 -39q-87 -94 -111 -167q-6 -21 -6 -44q0 -43 22 -43q26 0 63 39t61 92q6 14 17.5 15t18.5 -15q9 -32 -5 -67q-19 -44 -67 -73.5 t-94 -29.5t-72.5 29.5t-26.5 74.5q0 27 7 52q20 64 98 157q-35 -13 -72 -17q-52 -116 -117 -191t-179 -123q-27 -66 -45 -105t-46.5 -92t-58 -84.5t-60.5 -43.5q-39 -15 -68 23q-30 42 -30 83q0 20 9 47q43 119 209 186l15 35q-38 -28 -82 -28q-35 0 -53.5 23t-18.5 57 t13 70q48 131 134 249q21 28 39 2q19 -27 19 -48q0 -35 -35 -91q-46 -74 -74 -142q-30 -76 3 -76q36 0 120 142q36 60 71.5 127t46.5 83q21 26 38 9q19 -19 19 -51t-18 -67q-90 -173 -122 -248zM86 -85q-65 -45 -103 -115q-18 -34 -24 -63t2 -34q5 -4 19.5 15t36.5 57 q31 55 69 140z"></glyph><glyph glyph-name="ucyrillic_gecyrillic" unicode="уг" d="M350 275q-14 -29 -39 -79t-44.5 -89.5t-34.5 -72.5q109 74 227 257q35 55 66 79.5t76 24.5q35 0 60.5 -26t25.5 -57q0 -30 -54 -108q-43 -60 -55 -89q-15 -37 -15 -57q0 -34 19 -34q26 0 65 40t67 92q6 10 16 10q11 0 17.5 -10t6.5 -22q0 -22 -16 -50q-21 -37 -72 -69.5 t-94 -32.5q-48 0 -73.5 23t-25.5 63q0 30 18 68q18 39 67 108q39 51 39 76q0 22 -15 22q-31 0 -81 -81q-69 -109 -135 -179t-162 -114q-26 -61 -45.5 -103t-47.5 -92.5t-58 -83t-60 -44.5q-11 -4 -23 -4q-29 0 -48 25q-35 43 -35 80q0 25 12 48q30 57 82.5 101t131.5 84 l15 35q-38 -27 -75 -27q-42 0 -61 22t-19 57q0 31 14 70q46 129 134 249q7 10 21 10q15 0 26 -20t11 -35q0 -34 -34 -92q-69 -119 -81 -159q-7 -21 -7 -36q0 -23 11 -23q39 0 125 142q15 25 54.5 100.5t63.5 109.5q10 14 25 14q14 0 23 -19.5t9 -34.5q0 -30 -18 -67z M-48 -281q0 -11 8 -11q11 0 56 72q40 67 69 131q-60 -43 -97 -99q-36 -55 -36 -93z"></glyph><glyph glyph-name="ucyrillic_zecyrillic" unicode="уз" d="M429 -222q0 -11 -2 -12q17 2 60.5 65.5t69.5 126.5q-62 -40 -95 -92.5t-33 -87.5zM-48 -280q0 -12 4 -12q13 0 53.5 63.5t79.5 149.5q-62 -46 -99.5 -106.5t-37.5 -94.5zM495 228q-29 -35 -78 -89q-49 -55 -96 -92t-113 -69q-26 -61 -46 -104.5t-49 -96t-59.5 -86.5 t-60.5 -46l1 1q-10 -5 -24 -5q-27 0 -48 25q-35 43 -35 80q0 14 12 47q29 65 80 107t138 87l3 9l7 18q-37 -27 -74 -27q-79 0 -79 79q0 29 13 70q46 129 134 249q7 10 22 10t25.5 -20t10.5 -35q0 -37 -33 -92q-88 -143 -88 -195q0 -23 10 -23q41 0 125 142q15 25 55 100.5 t64 109.5q8 14 24 14q14 0 23 -19.5t9 -34.5q0 -26 -37 -105q-76 -149 -96 -195q58 37 130 115q22 27 51 65q50 66 91 109q64 67 129 67q52 0 81 -39q18 -25 18 -60t-34 -81q-48 -67 -123 -118q24 -5 39 -20h-1q19 -17 27 -40q66 43 104 117q5 9 19 9q20 0 20 -20 q0 -26 -15 -55q-29 -50 -123 -93q-1 -74 -59 -166.5t-110 -121.5q-17 -10 -33 -10q-24 0 -46 25q-34 43 -34 76q0 21 11 44q49 105 200 167q0 4 0.5 9.5t0.5 7.5q0 33 -17 33q-37 0 -77 -27q-4 -5 -15 -5q-15 0 -18 10q-5 17 -5 26q0 43 43 68q88 50 134.5 100.5t46.5 90.5 q0 21 -13 21q-61 0 -147 -101z"></glyph><glyph glyph-name="hacyrillic_gecyrillic" unicode="хг" d="M13 -2q0 39 62 106q18 20 88 80q-25 158 -26 158q-4 1 -15 -10t-26 -34.5t-28 -52.5q-7 -11 -18 -11q-16 0 -18 10q-2 5 -2 16q0 17 9 40q15 35 50.5 64t71.5 29q34 0 50 -18.5t24 -56.5q9 -42 12 -67q82 70 129 130q10 12 22 12q17 0 17 -18q0 -39 -56 -103 q-23 -25 -77 -69l-25 -21l7 -52q6 -44 8 -52q10 -50 20 -50q13 0 30.5 16t40.5 49.5t39.5 59.5t42.5 70q39 64 48 78q34 52 65.5 73t73.5 21q35 0 60.5 -26t25.5 -57q0 -20 -9 -38q-8 -15 -46 -70q-43 -60 -55 -89q-14 -34 -14 -57q0 -34 18 -34q45 0 117 132q6 10 19 10 q11 0 16.5 -9t5.5 -19q0 -22 -13 -48q-23 -43 -67.5 -75.5t-87.5 -32.5q-48 0 -73 23t-25 63q0 29 17 68q18 41 66 108q39 56 39 74q0 24 -13 24q-27 0 -74 -66q-12 -15 -50 -78q-6 -11 -43 -71q-48 -76 -86 -112t-84 -36q-84 0 -101 122q0 4 -1 11q-68 -58 -119 -120 q-7 -11 -24 -11q-18 0 -18 17z"></glyph><glyph glyph-name="yericyrillic_checyrillic" unicode="ыч" d="M635 281q-59 -143 -117 -220.5t-132 -77.5q-43 0 -65.5 24t-22.5 63q0 23 15 66q9 29 54 106q-47 -38 -97 -64q1 -9 1 -30q0 -61 -55.5 -114t-131.5 -53q-48 0 -74.5 26t-26.5 67q0 26 13 62q22 60 71 140q46 80 59 108v-1q2 6 9 10.5t16 4.5q11 0 24.5 -23t13.5 -42 q0 -6 -2 -14.5t-6 -19t-8 -19t-11 -22t-11 -21l-12 -22.5t-11 -20h-1q-5 -8 -9 -14.5t-5 -8.5t-2 -3q-41 -74 -41 -108q0 -37 22 -37q29 0 59.5 38t30.5 81q0 19 -1 24q-36 6 -36 31q0 24 23 50q30 33 62 33q27 0 36 -51q71 39 147 135q19 24 44 24q18 0 28.5 -26.5 t10.5 -51.5q0 -13 -13 -39q-60 -102 -83 -162q-17 -42 -17 -60q0 -25 11 -25q40 0 93.5 80t90.5 185q-27 14 -27 44q0 38 36 82t63 45q30 0 30 -35q0 -29 -20 -84q43 10 87 43h-1q13 9 26 9q14 0 19 -8q11 -8 19.5 -28.5t8.5 -39.5q0 -20 -16 -40q-86 -95 -109 -168 q-7 -26 -7 -45q0 -41 25 -41q24 0 54 38t53 92q5 11 18 11q21 0 21 -34q0 -18 -9 -43q-20 -44 -59.5 -74t-80.5 -30q-50 0 -77 29t-27 74q0 27 8 54h-1q21 63 101 158q-40 -16 -78 -18z"></glyph><glyph glyph-name="yericyrillic_gecyrillic" unicode="ыг" d="M530 81q-69 -98 -144 -98q-43 0 -66.5 24.5t-23.5 62.5q0 19 17 66q14 38 53 106q-42 -35 -96 -64q1 -9 1 -30q0 -61 -55.5 -114t-131.5 -53q-48 0 -74.5 26t-26.5 67q0 21 13 62q22 60 71 140q46 80 59 108v-1q4 15 26 15q10 0 23.5 -23t13.5 -42q0 -30 -61 -138h-1 q-5 -8 -8.5 -14.5t-4.5 -8.5t-2 -3q-41 -69 -41 -108q0 -37 21 -37q29 0 59.5 38t30.5 81q0 19 -1 24q-36 6 -36 31q0 22 23 50q30 33 62 33q27 0 36 -51q71 39 147 135q19 24 44 24q19 0 29 -26.5t10 -51.5q0 -13 -13 -39q-61 -107 -83 -162q-19 -44 -19 -60q0 -25 9 -25 q38 0 100 86q26 35 86 136q4 6 11 18t8 14q34 58 69 87t79 29q35 0 61.5 -26.5t26.5 -56.5q0 -19 -8 -38q-8 -15 -46 -70q-43 -60 -55 -89q-15 -37 -15 -57q0 -34 19 -34q45 0 117 132q6 10 19 10q11 0 16.5 -9t5.5 -19q0 -23 -14 -48q-22 -43 -66.5 -75.5t-87.5 -32.5 q-48 0 -73.5 23t-25.5 63q0 30 18 68q16 36 65 108q40 55 40 74q0 22 -13 22q-18 0 -37.5 -19t-46.5 -62l-35 -56q-4 -7 -33.5 -53.5t-44.5 -68.5z"></glyph><glyph glyph-name="yericyrillic_zecyrillic" unicode="ыз" d="M584 -300q-24 0 -45 25q-35 42 -35 76q0 21 11 44q49 105 200 167v2q1 6 1 15q0 33 -17 33q-37 0 -76 -27h1q-6 -5 -17 -5q-15 0 -18 10l1 -1q-6 16 -6 27q0 43 43 68q89 50 135 100.5t46 90.5q0 21 -17 21q-71 0 -154 -107q-36 -49 -84 -121q-43 -64 -82.5 -99.5 t-86.5 -35.5q-40 0 -64 24.5t-24 62.5q0 19 17 66q18 47 54 106q-44 -35 -97 -64q1 -9 1 -30q0 -61 -55.5 -114t-131.5 -53q-48 0 -74.5 26t-26.5 67q0 23 14 62q18 52 70 140q46 80 59 108v-1q4 15 26 15q10 0 23.5 -23t13.5 -42q0 -30 -61 -138h-1q-4 -8 -8 -14.5t-5 -8.5 t-2 -3q-41 -69 -41 -108q0 -16 6 -26.5t15 -10.5q29 0 59.5 38t30.5 81q0 19 -1 24q-36 7 -36 31q0 22 23 50q30 33 62 33q27 0 36 -51q67 36 148 135q4 6 16.5 15t26.5 9q19 0 29.5 -26.5t10.5 -51.5q0 -15 -14 -39q-66 -121 -83 -162q-19 -41 -19 -62q0 -23 9 -23 q37 0 117 118l32 50q55 91 94 138q59 67 137 67q56 0 85 -39q19 -26 19 -60t-35 -81q-48 -67 -123 -118q24 -5 39 -20h-1q19 -17 27 -40q58 38 99 117q5 9 19 9q20 0 20 -20q0 -29 -15 -55q-31 -53 -118 -93q-1 -74 -59 -166.5t-110 -121.5q-17 -10 -33 -10zM577 -222 q0 -11 -2 -12q17 2 60 65t70 127q-62 -40 -95 -92.5t-33 -87.5z"></glyph><glyph glyph-name="iucyrillic_checyrillic" unicode="юч" d="M199 331q0 -34 -15 -62q-11 -23 -26 -50q23 5 63 15q8 20 15 30q21 43 72 87t103 44q22 0 35.5 -8.5t29.5 -28.5l15 -18q35 -37 35 -77q0 -9 -3 -23q30 12 52 50q-24 14 -24 42q0 38 36.5 82t63.5 45q30 0 30 -35q0 -29 -20 -84q42 10 86 43q12 9 25 9l19 -8 q29 -20 29 -68q0 -18 -17 -40q-84 -93 -108 -168q-8 -24 -8 -45q0 -41 25 -41q24 0 53.5 38t54.5 92q4 12 17 12q23 0 23 -39q0 -21 -9 -39v1q-21 -45 -60.5 -75t-81.5 -30q-50 0 -77 29t-27 75q0 25 8 54h-1q19 59 101 158q-38 -17 -79 -19q-43 -70 -118 -78 q-17 -67 -61 -128.5t-98 -79.5q-17 -6 -39 -6q-54 0 -89 41t-35 96q0 27 4 50q-18 -5 -73 -16q-53 -106 -76 -158q-6 -12 -17 -12q-8 0 -16 8q-19 19 -19 53q0 25 13 61l15 36q-10 4 -10 15q0 23 30 36q50 114 98 178v-1q9 14 23 14q16 0 24.5 -19.5t8.5 -37.5zM444 330 q-7 0 -7 -27q0 -19 8 -33q1 10 1 29q0 31 -2 31zM272 80q0 -44 20 -44q38 0 80 61.5t59 120.5q-48 30 -60 78q-35 -36 -57 -76q-42 -76 -42 -140z"></glyph><glyph glyph-name="iucyrillic_gecyrillic" unicode="юг" d="M199 331q0 -38 -15 -62q-11 -23 -26 -50q23 5 63 15q8 20 15 30h-1q29 52 76 91.5t100 39.5q22 0 35.5 -8.5t29.5 -28.5h-1l16 -18q35 -37 35 -77q0 -6 -2 -20l-1 -4q29 12 64 59q46 57 72 77t63 20q36 0 62 -26.5t26 -56.5q0 -20 -9 -38q-13 -25 -46 -70 q-46 -67 -55 -89q-14 -38 -14 -57q0 -34 18 -34q44 0 118 132q4 10 18 10q11 0 17 -9t6 -19q0 -23 -14 -48q-22 -42 -66.5 -75t-87.5 -33q-49 0 -74 23t-25 63q0 29 17 68q18 41 66 108q39 56 39 74q0 22 -9 22q-20 0 -70 -59q-2 -2 -10 -11.5t-10.5 -12t-10 -10.5t-11 -11 l-10.5 -9t-12 -8.5t-12.5 -7t-14 -6t-15 -3.5t-17.5 -2q-17 -67 -61 -128t-98 -79q-12 -6 -39 -6q-54 0 -89 41t-35 96q0 27 4 50q-18 -5 -73 -16q-53 -106 -76 -158q-6 -12 -17 -12q-8 0 -16 8q-19 19 -19 53q0 25 13 61l15 36q-10 4 -10 15q0 23 30 36q50 114 98 178v-1 q9 14 23 14q16 0 24.5 -19.5t8.5 -37.5zM444 330q-7 0 -7 -27q0 -19 8 -33q2 20 2 29q0 31 -3 31zM272 80q0 -44 20 -44q38 0 80 61.5t59 120.5q-48 30 -60 78q-35 -36 -57 -76q-42 -76 -42 -140z"></glyph><glyph glyph-name="iacyrillic_checyrillic" unicode="яч" d="M189 197q45 0 86 81q12 24 12 49q0 23 -12 23q-42 0 -83 -56q-27 -35 -27 -72q0 -25 24 -25zM771 131q0 -22 -10 -43q-18 -44 -58 -74t-81 -30q-51 0 -78 29t-27 74q0 28 9 54h-1q22 67 101 158q-42 -16 -79 -18q-120 -299 -254 -299q-84 0 -84 82q0 19 10 47 q-49 -62 -102 -100q-37 -27 -76 -27q-23 0 -44.5 15.5t-21.5 44.5q0 44 25 97q19 40 60 40q30 0 30 -16q0 -3 -5 -11q-1 -3 -7.5 -17.5t-11 -26.5t-9 -28.5t-4.5 -30.5q0 -17 1 -17q7 0 42 28q41 33 90 91h-20q-44 0 -66.5 28.5t-22.5 63.5q0 56 39 96q62 65 147 65 q24 0 44.5 -12t29.5 -32q9 16 22 29q10 8 21 8q16 0 24.5 -21t8.5 -38q0 -28 -30 -84l-12 -26q-39 -74 -47 -95q-26 -60 -26 -83q0 -24 9 -24q40 0 94 79.5t90 182.5q-28 13 -28 44q0 38 36.5 82t63.5 45q29 0 29 -35q0 -27 -19 -84q42 10 87 43q20 9 24 9q15 0 20 -8 q28 -37 28 -68q0 -18 -17 -40q-84 -94 -108 -168q-8 -24 -8 -45q0 -41 26 -41q24 0 54 38t53 92q6 11 18 11q21 0 21 -34z"></glyph><glyph glyph-name="iacyrillic_gecyrillic" unicode="яг" d="M189 197q45 0 86 81q12 24 12 49q0 23 -12 23q-42 0 -83 -56q-27 -37 -27 -72q0 -25 24 -25zM472 131q-45 -78 -82 -113.5t-91 -35.5q-48 0 -68 21.5t-20 62.5q0 24 10 47q-50 -62 -104 -102q-37 -27 -76 -27q-23 0 -44.5 15.5t-21.5 44.5q0 44 25 97q19 40 60 40 q30 0 30 -16q0 -3 -4 -11q-1 -7 -17 -44t-16 -59q0 -17 1 -17q7 0 42 28q41 33 90 91h-20q-44 0 -66.5 28.5t-22.5 63.5q0 54 39 96q62 65 147 65q53 0 75 -44q8 16 21 29q10 8 22 8q15 0 23.5 -21t8.5 -38q0 -28 -30 -84l-12 -26q-36 -69 -47 -95q-24 -55 -24 -79 q0 -30 8 -30q17 0 37 16.5t42.5 49.5t38.5 61t40 72l45 76q34 54 64.5 74t72.5 20q36 0 63 -26.5t27 -56.5q0 -20 -9 -38q-13 -25 -46 -70q-46 -66 -54 -89q-15 -37 -15 -57q0 -34 18 -34q46 0 118 132q6 10 18 10q11 0 17 -9t6 -19q0 -23 -14 -48q-22 -42 -66.5 -75 t-87.5 -33q-49 0 -74 23t-25 63q0 30 18 68q14 32 65 108q39 53 39 74q0 10 -5 17t-11 7q-28 0 -73 -63q-4 -6 -44 -77z"></glyph><glyph glyph-name="iacyrillic_zecyrillic" unicode="яз" d="M189 197q45 0 86 81q12 24 12 49q0 23 -12 23q-41 0 -83 -56q-27 -37 -27 -72q0 -25 24 -25zM496 -300q-24 0 -46 25q-34 40 -34 76q0 21 11 44q49 105 200 167q1 5 1 17q0 33 -18 33q-37 0 -76 -27h1q-6 -5 -17 -5q-14 0 -17 10l1 -1q-6 16 -6 27q0 43 43 68 q88 50 134.5 100.5t46.5 90.5q0 21 -17 21q-66 0 -150 -111q-45 -56 -93 -125q-47 -69 -82 -98.5t-80 -29.5q-87 0 -87 84q0 22 11 47q-52 -63 -105 -102q-36 -27 -76 -27q-23 0 -44.5 15.5t-21.5 44.5q0 44 25 97q19 40 60 40q16 0 23.5 -5t7.5 -11q0 -3 -5 -11h1 q-33 -54 -33 -103q0 -17 1 -17q5 0 42 28q41 34 89 91h-20q-44 0 -66.5 28.5t-22.5 63.5q0 54 39 96q62 65 148 65q24 0 44 -12t30 -32q11 19 21 29q10 8 22 8q15 0 23.5 -21t8.5 -38q0 -28 -29 -84l-13 -26q-36 -69 -47 -95q-23 -53 -23 -79q0 -30 8 -30q33 0 108 111 l30 46q63 97 102 144q64 71 129 71q61 0 88 -39q19 -26 19 -60q0 -32 -34 -81q-52 -70 -123 -118q22 -5 39 -20h-1q18 -15 26 -40q60 39 100 117q5 9 18 9q21 0 21 -20q0 -27 -16 -55q-29 -52 -118 -93q-1 -74 -59 -166.5t-110 -121.5q-17 -10 -32 -10zM487 -222 q0 -2 -0.5 -6t-0.5 -6q18 2 61 65t69 127q-61 -39 -92 -89.5t-37 -90.5z"></glyph><glyph glyph-name="ecyrillic_checyrillic" unicode="єч" d="M529 -16q-50 0 -77 29t-27 74q0 28 9 54h-1q19 63 100 158q-40 -16 -78 -18q-48 -111 -134.5 -190.5t-172.5 -100.5q-3 0 -7 -2q-12 -3 -27 -3q-59 0 -98 51q-19 25 -19 54q0 25 16 64q4 13 21 13q16 0 32 -16t16 -40q0 -9 -4 -29q-5 -25 -5 -30q0 -17 15 -17 q20 0 49.5 28.5t55.5 77.5l1 1l0.5 1.5t2 3.5t3 5l3.5 7q-22 -2 -43 -2q-38 0 -58 18q-25 21 -25 45q0 12 22 12q6 0 12 -0.5t7 -0.5q63 0 101 7q10 2 14 2v3q9 45 9 59q0 34 -36 34q-41 0 -100 -46q-22 -18 -41 -18q-25 0 -25 22q0 14 9 27q13 22 61 47t89 25 q27 0 41.5 -7.5t30.5 -29.5q7 -10 15 -17q12 -13 17 -19t10.5 -21t5.5 -35q0 -32 -6 -62q-10 -42 -34 -86q81 79 120 174q-28 13 -28 44q0 38 36.5 82t63.5 45q29 0 29 -35q0 -27 -19 -84q42 11 86 43q11 9 25 9q15 0 19 -8h-1q30 -35 30 -68q0 -18 -17 -40 q-86 -96 -108 -168q-8 -24 -8 -45q0 -41 25 -41t54 37.5t54 92.5q6 11 17 11q22 0 22 -34q0 -15 -10 -43q-19 -43 -59 -73.5t-81 -30.5z"></glyph><glyph glyph-name="ecyrillic_vecyrillic" unicode="єв" d="M706 618q0 8 1 9q-17 -1 -67.5 -80t-103.5 -183q74 69 122 139t48 115zM599 295q0 42 -14 42q-16 0 -45 -27t-58 -68q-55 -78 -55 -155q0 -50 20 -50q48 0 100 90t52 168zM204 159q-24 -2 -43 -2q-38 0 -59 18q-24 21 -24 45q0 12 21 12h9q1 0 5 -0.5t6 -0.5q37 0 100 7 q13 1 15 2q9 34 9 62q0 34 -36 34q-42 0 -101 -46q-22 -18 -41 -18q-24 0 -24 22q0 13 8 27q13 22 61 47t90 25q27 0 41.5 -7.5t29.5 -29.5q10 -12 16 -17q24 -27 29 -44q4 -14 4 -31q0 -34 -7 -63q-11 -34 -18 -53l70 64q20 63 105 220q118 213 200 257h-1q7 6 22 6 q32 0 51 -29q22 -34 22 -76q0 -80 -144 -206q28 -8 46.5 -42t18.5 -73q0 -62 -35 -130q-80 -154 -185 -154q-48 0 -82 40.5t-34 103.5v11q-47 -44 -97 -83.5t-74 -52.5q-12 -7 -27 -13q-20 -6 -36 -6q-59 0 -99 51q-18 26 -18 54q0 23 15 64q4 13 22 13q15 0 31.5 -16 t16.5 -40q0 -9 -4 -29q-5 -25 -5 -30q0 -17 14 -17q21 0 50.5 28.5t55.5 77.5v1q1 0 1.5 1.5t2 3.5t3 5z"></glyph><glyph glyph-name="icyrillic_checyrillic" unicode="іч" d="M165 479q17 18 40 10.5t35 -32.5q9 -22 5.5 -40.5t-13.5 -30.5q-12 -17 -36 -13t-37 28q-10 19 -10 37q0 23 16 41zM362 460q29 0 29 -33q0 -34 -21 -87q37 9 87 43q30 20 45 2q29 -38 29 -67q0 -18 -17 -40q-85 -97 -108 -169q-8 -24 -8 -45q0 -42 22 -42 q26 0 62.5 39.5t59.5 92.5q6 15 16 15.5t18 -15.5q12 -26 -5 -67q-18 -44 -65 -73.5t-93 -29.5t-72 28t-26 73q0 25 10 55q31 79 99 159q-37 -17 -78 -19q-58 -132 -132 -213.5t-152 -81.5q-39 0 -59 24t-20 63q0 26 11 64q19 60 60 131t67 108q20 27 40 6q16 -18 16 -49 q0 -46 -49 -129q-64 -109 -64 -154q0 -23 14 -23q36 0 104.5 80.5t105.5 182.5q-27 13 -27 44q0 37 37 82t64 45z"></glyph><glyph glyph-name="icyrillic_hacyrillic" unicode="іх" d="M167 479q19 13 40.5 6.5t31.5 -29.5q7 -17 7 -30q0 -23 -15 -40q-13 -17 -35.5 -13t-36.5 28q-11 19 -11 38q0 28 19 40zM270 376q29 -6 45.5 -24t22.5 -62q4 -34 5 -59q68 71 127 153q8 11 17.5 15t16 -2t5.5 -21q-1 -29 -38 -82q-42 -54 -122 -134q4 -62 6 -84 q7 -47 20 -47q20 0 55 41.5t55 85.5q5 11 12 14t13 -1.5t10 -14.5q11 -32 -13 -70q-26 -43 -69.5 -71.5t-83.5 -28.5q-78 0 -91 98q-120 -98 -192 -98q-44 0 -66.5 23.5t-22.5 63.5q0 28 11 64q17 50 61.5 130.5t66.5 109.5q20 28 41 6q17 -20 17 -51q0 -32 -15 -62 q-8 -19 -42.5 -78.5t-44.5 -83.5q-14 -34 -14 -56q0 -13 4 -19.5t12 -5.5q52 3 179 121q-11 153 -21 208q-3 13 7 18.5t26 3.5z"></glyph><glyph glyph-name=".notdef" d="M49 0v702h501v-702h-501zM99 658v-618h403v618h-403z"></glyph><glyph glyph-name=".null"></glyph><glyph glyph-name=".null"></glyph><glyph glyph-name="nonmarkingreturn"></glyph><glyph glyph-name="CR" unicode="&#13;"></glyph><glyph glyph-name="space" unicode=" "></glyph><glyph glyph-name="exclam" unicode="!" d="M131 204q30 82 93.5 206t118.5 203q24 36 41 -1q10 -22 10 -39q0 -49 -37 -116q-122 -218 -187 -361q-7 -14 -14 -15.5t-20 10.5q-19 19 -19 51q0 26 14 62zM49 41q0 20 13 37t30 17q32 0 49 -35q15 -36 -8 -70q-12 -15 -35.5 -10.5t-36.5 25.5q-12 21 -12 36z"></glyph><glyph glyph-name="quotedbl" unicode="&quot;" d="M283 561q-24 -43 -84 -132q-16 -22 -35 -19q-20 3 -14 24q13 39 45 102t55 93q12 14 23 13.5t18 -13.5q15 -28 -8 -68zM358 521q-27 -43 -81.5 -98.5t-71.5 -43.5q-14 12 -4 28l26 39t38.5 57t35.5 49.5t35 41.5t28 10t16 -16q6 -27 -22 -67z"></glyph><glyph glyph-name="numbersign" unicode="#" d="M98 201l37 4q25 59 66 135q-48 -5 -87 -5q-11 0 -17 7.5t0 15.5q20 26 87 33l46 5q43 81 85 148q9 13 19.5 15t17.5 -14q12 -34 -26 -115l-14 -29q46 2 70 2q60 107 89 147q11 14 23 12.5t16 -15.5q10 -35 -46 -144q49 0 76 -4q37 -5 16 -24q-32 -32 -125 -32l-71 -128 q54 0 94 -2q36 -3 15 -24q-32 -33 -141 -33q-14 -26 -70 -137q-14 -29 -32 0q-16 23 8 90q9 25 20 46q-45 0 -70 -1q-9 -18 -28 -58.5t-31 -64.5q-14 -28 -32 -1q-17 27 18 119l-82 -5q-17 -1 -21.5 4t3.5 15q21 31 87 38zM348 343h-64q-7 -14 -25.5 -49.5t-28.5 -53.5 l-15 -28l67 2q30 62 66 129z"></glyph><glyph glyph-name="dollar" unicode="$" d="M81 314q0 59 46 109t105 74q23 10 47 7q12 21 33.5 55.5t24.5 40.5h-1q21 34 38 2q19 -32 -32 -128q19 -19 27 -40q9 -23 -0.5 -51.5t-42.5 -97.5q-6 -14 -15 -15.5t-22 7.5q-30 17 -30 48q0 27 23 68q21 47 15 51q-9 7 -39.5 -9.5t-58.5 -49.5t-28 -66q0 -30 64 -64 q20 -14 30.5 -21.5t20 -19t9.5 -20.5q0 -28 -30 -58q-31 -33 -86 -33q-17 0 -33 3q-4 -9 -12 -26t-13 -26q-14 -28 -23 -39t-14.5 -10t-13.5 11q-18 24 3 77l15 37q-40 27 -67 65q-6 7 -2.5 14.5t15.5 9.5q41 9 72 -17q7 -6 18 -15t15 -12.5t11.5 -9t12 -7t12 -3.5t15.5 -3 q18 -2 30 10q10 10 -3 22q-17 15 -36 24q-30 17 -47.5 28.5t-35 33t-17.5 44.5z"></glyph><glyph glyph-name="percent" unicode="%" d="M141 7q-13 34 23 93q32 50 118 156t174 205q-36 2 -67 17q0 -17 -17.5 -59t-52.5 -88t-72 -56q-67 -18 -107 41q-21 30 -21 64q0 51 36 115q25 42 62 69.5t75 28.5q35 3 60 -31q17 -23 44.5 -36.5t55.5 -13.5q52 0 82 33q39 41 45 1q6 -48 -52 -116q-280 -325 -351 -426 q-23 -32 -35 3zM279 396q25 45 36 87t2 52q-11 11 -40 -14.5t-54 -65.5q-32 -54 -32 -106q0 -27 12 -27q14 0 35.5 19.5t40.5 54.5zM586 188q0 -55 -42.5 -121.5t-92.5 -81.5q-12 -4 -30 -4q-48 0 -79 41q-21 28 -21 68q0 53 33 111q25 43 60.5 72t71.5 31q38 3 61 -26 l13 -15l1 -1q25 -32 25 -74zM479 107q24 46 33.5 89t-0.5 50q-10 10 -38 -16.5t-51 -65.5q-32 -57 -32 -104q0 -29 13 -29q14 0 34.5 20t40.5 56z"></glyph><glyph glyph-name="ampersand" unicode="&amp;" d="M101 84q-1 -29 13.5 -47.5t42.5 -20.5q36 -3 82.5 29t77.5 91l-28 -4q-67 -9 -92 42q-11 25 20 25q29 -1 100 16q62 14 90 16q74 5 102 -54q3 -12 -2.5 -17t-20.5 -4q-35 5 -87 -4q7 -49 -36 -106q-29 -38 -77.5 -63.5t-100.5 -25.5q-66 0 -113 41q-51 45 -51 107t49 123 t124 88q-46 21 -49 75q-3 68 57 128.5t122 80.5q39 12 70 12q46 0 78 -28q41 -36 41 -69q0 -24 -16 -55q-25 -50 -41 -94q-7 -23 -35 -8q-35 18 -35 60q0 16 9 41q6 22 15 41t14.5 29.5t5.5 16.5q0 12 -14 12q-25 1 -68.5 -26t-79 -71t-32.5 -82q3 -41 61 -39q64 1 83 -45 q7 -20 -20 -22q-105 -9 -181 -65t-78 -124z"></glyph><glyph glyph-name="quotesingle" unicode="'" d="M288 568q-8 -18 -38.5 -64.5t-51.5 -72.5q-15 -20 -37 -16q-19 3 -13 24q14 39 49 103t60 93q15 17 25.5 15t17.5 -17q11 -26 -12 -65z"></glyph><glyph glyph-name="parenleft" unicode="(" d="M36 94q0 159 77 308.5t223 240.5q29 19 35 -11q4 -23 -15 -57.5t-56 -68.5q-90 -83 -144.5 -210t-54.5 -272q0 -15 1.5 -39t1.5 -34q0 -12 -10 -14.5t-21 4.5q-22 15 -29 55q-8 51 -8 98z"></glyph><glyph glyph-name="parenright" unicode=")" d="M251 641q13 10 22.5 6.5t12.5 -18.5q14 -72 14 -125q0 -159 -76.5 -306.5t-179.5 -224.5q-44 -32 -84 -32q-12 0 -15.5 7.5t5.5 14.5q128 112 195.5 261.5t61.5 279.5q-3 97 44 137z"></glyph><glyph glyph-name="asterisk" unicode="*" d="M408 546q17 3 23 -2t4 -17q-7 -34 -57 -48q-25 -7 -58 -14q13 -31 42 -65q7 -9 2 -16t-18 -8q-37 -2 -58 28l-12 17q-26 -45 -39 -75q-5 -11 -15 -11.5t-17 8.5q-12 14 -12 32q0 23 9 43q0 1 4.5 9.5t5.5 12.5q-31 -6 -57 -14q-13 -3 -20.5 0.5t-5.5 14.5q6 31 54 49 q32 9 38 11q-5 9 -22.5 35.5t-25.5 40.5q-10 23 17 26q37 4 66 -37l12 -17q31 57 57 96q11 17 26 6q21 -15 21 -40q0 -15 -11 -36l-23 -44q25 6 70 15z"></glyph><glyph glyph-name="plus" unicode="+" d="M254 410q17 -19 17 -45q0 -25 -10 -46q56 -7 67 -57q3 -11 -1.5 -15.5t-21.5 -3.5q-22 2 -34 2q-25 0 -52 -3q-33 -56 -49 -95q-12 -26 -35 -9t-23 48q0 15 9 40l3 9q-60 5 -72 57q-2 11 2.5 16.5t20.5 4.5q27 -2 87 2q36 64 53 93q7 13 18 13.5t21 -11.5z"></glyph><glyph glyph-name="comma" unicode="," d="M46 -51q-10 5 -9 12t9 11q14 8 28 18q-21 19 -15 47q6 23 24 37t38 14q22 -1 34 -23t2 -51q-9 -28 -36.5 -49t-55.5 -20q-7 0 -19 4z"></glyph><glyph glyph-name="hyphen" unicode="-" d="M258 205q-26 0 -74 -5t-68 -4q-67 3 -81 57q-2 8 4.5 14t17.5 6q39 0 94.5 4t75.5 4q71 0 84 -56q2 -10 -3 -16t-19 -5q-11 1 -31 1z"></glyph><glyph glyph-name="period" unicode="." d="M71 -17q-18 7 -24 27.5t3 39.5q10 23 30.5 34t39.5 4q18 -6 23.5 -25t-3.5 -41t-30 -34t-39 -5z"></glyph><glyph glyph-name="slash" unicode="/" d="M535 645q15 14 26.5 11.5t15.5 -21.5q10 -49 -63 -139q-17 -20 -106 -117q-266 -283 -348 -406q-8 -12 -19 -12.5t-19 15.5q-15 38 17 97q45 79 222 280.5t274 291.5z"></glyph><glyph glyph-name="zero" unicode="0" d="M307 603q30 12 63 12q50 0 76 -24q37 -21 59.5 -63.5t22.5 -93.5q0 -107 -55 -217q-50 -101 -120 -166.5t-148 -65.5q-35 0 -63 12q-46 19 -77.5 66t-31.5 104q0 70 28 143.5t70 130.5t88.5 100t87.5 62zM159 39q44 -12 111 45.5t116 159.5q60 126 60 223q0 79 -32 89 q-33 12 -102.5 -43.5t-127.5 -153.5q-65 -114 -65 -218q0 -84 40 -102z"></glyph><glyph glyph-name="one" unicode="1" d="M-13 26q0 31 10 62q14 43 71 160.5t114 221.5q-23 0 -31.5 6t-6 12t9.5 13q79 79 89 90q26 24 45 5q26 -23 26 -51q0 -35 -30 -90q-189 -349 -243 -476q-5 -11 -16 -13.5t-21 7.5q-17 20 -17 53z"></glyph><glyph glyph-name="two" unicode="2" d="M498 485q0 -44 -25 -93q-30 -60 -125 -152t-216 -164q40 9 86 11q80 0 98 -52q5 -10 1 -16t-21 -6q-40 0 -118 -13t-122 -26q-39 -12 -60 9q-19 23 -26 44q-11 27 19 46q173 103 304 235t131 205q0 20 -9 30.5t-20 10.5q-26 0 -61 -37t-62 -78q-25 -39 -48.5 -54.5 t-59.5 -13.5q-16 1 -19.5 5.5t1.5 17.5q16 46 60 107t99 88q31 17 68 17q54 0 87 -35q38 -36 38 -86z"></glyph><glyph glyph-name="three" unicode="3" d="M516 510q0 -46 -40 -99.5t-123 -93.5q65 -20 65 -89q0 -67 -69 -152q-75 -91 -181 -91q-55 0 -97 27q-64 41 -64 111q0 22 10 48q13 31 38.5 49.5t51.5 18.5q12 0 17 -7.5t0 -15.5q-37 -67 -37 -112q0 -29 16.5 -45t36.5 -16q31 0 68.5 23.5t67.5 61.5q56 70 56 117 q0 31 -30 31q-9 0 -29 -4q-24 -4 -37 -4q-38 0 -69 32q-11 20 14 28q119 36 190 98.5t71 110.5q0 17 -9 25.5t-19 8.5q-39 0 -105 -86q-56 -69 -117 -57q-29 5 -18 26q22 44 66.5 89.5t82.5 64.5q28 14 68 14q58 0 89 -32q36 -38 36 -80z"></glyph><glyph glyph-name="four" unicode="4" d="M118 247q86 20 166 24q56 111 119 207q-182 -128 -285 -231zM522 549q11 -18 10 -28.5t-17 -34.5q-43 -65 -136 -231q25 -16 37 -51q2 -7 -4.5 -10t-20.5 0q-12 3 -44 3q-61 -112 -102 -211q-6 -14 -16.5 -15t-18.5 10q-19 30 -19 55t12 57q18 48 39 95q-75 -12 -126 -24 q-31 -7 -44 10q-14 18 -35 57q-10 18 6 38q59 69 179.5 168t219.5 163q36 23 53 -5z"></glyph><glyph glyph-name="five" unicode="5" d="M565 567q4 -11 -0.5 -15.5t-19.5 -4.5q-53 0 -150 -18q-12 -2 -35 -5.5t-27 -4.5q-6 -1 -11 -1q-12 -17 -86 -132q16 4 36 4q50 0 83 -24q52 -43 52 -104q0 -63 -52 -150q-37 -61 -90.5 -92.5t-108.5 -31.5q-47 0 -81 19q-69 36 -69 110q0 25 11 54q24 62 90 68 q11 1 16 -6t-1 -17q-35 -54 -35 -111q0 -28 13 -46t31 -18q33 0 76 35t71 83q41 70 41 128q0 37 -15 45q-22 12 -59 -7t-67 -59q-12 -13 -19 -13t-18 12q-20 24 -20 55q0 29 16 60q28 57 97 169q-20 21 -17.5 35t23.5 14q54 0 157 15q66 11 79 11q68 1 89 -57z"></glyph><glyph glyph-name="six" unicode="6" d="M449 605q41 -29 40 -80q-3 -81 -42 -157q-14 -23 -37 -7q-29 21 -29 62q0 22 11 57q31 82 25 83q-31 5 -94.5 -45t-122.5 -148q22 9 52 9q41 0 72 -20q65 -42 65 -119q0 -62 -41 -134q-66 -119 -170 -119q-42 0 -79 22q-73 42 -73 148q0 103 69 225q40 70 84 120t83.5 74 t69.5 34.5t55 10.5q35 0 62 -16zM285 321q-36 10 -90 -31t-77 -123q-7 -27 -7 -49q0 -57 24 -70q25 -14 66.5 17.5t70.5 89.5q33 71 33 116q0 40 -20 50z"></glyph><glyph glyph-name="seven" unicode="7" d="M-6 20q0 35 26 83q47 82 150.5 212t184.5 207q-74 -18 -112 -23q-94 -11 -116 56q-2 11 3 15.5t18 4.5q44 0 127 14t92 15q17 4 30 0.5t25 -19.5q16 -27 29 -62q5 -18 1.5 -26t-21.5 -25q-89 -86 -207 -232t-185 -255q-16 -27 -35 0q-10 17 -10 35z"></glyph><glyph glyph-name="eight" unicode="8" d="M286 326q63 -125 63 -177q0 -68 -57 -124q-25 -27 -66.5 -41.5t-83.5 -14.5q-45 0 -73 14q-73 37 -73 108q0 43 27 93q41 74 149 162q-27 64 -22 99q8 44 45.5 87t81.5 61q34 15 75 15q49 0 80 -26t31 -75q10 2 20 2q26 0 36 -9q7 -5 6.5 -14t-8.5 -13 q-117 -64 -231 -147zM247 444q0 -20 6 -40q59 42 128 73q2 35 -10 60t-36 21q-33 -5 -60.5 -40.5t-27.5 -73.5zM248 148q0 32 -39 116q-87 -76 -116 -141q-14 -33 -14 -54q0 -23 13 -35.5t35 -12.5q44 0 80 38q41 47 41 89z"></glyph><glyph glyph-name="nine" unicode="9" d="M199 248q32 -15 76.5 19.5t71.5 103.5q27 66 27 122q0 48 -17 58q-24 12 -68 -26.5t-77 -100.5q-35 -68 -35 -120q0 -45 22 -56zM54 97q0 -64 34 -74q38 -11 92 37t105 145q-27 -9 -54 -9q-33 0 -67 15q-72 37 -72 121q0 61 39 131q37 69 86.5 106t101.5 37q36 0 68 -17 q71 -36 71 -133q0 -106 -77 -260q-110 -225 -259 -226q-33 -1 -61.5 8.5t-52.5 36t-26 68.5q-1 28 13 51t31 36q10 6 19 8t14.5 -2.5t2.5 -17.5q-8 -37 -8 -61z"></glyph><glyph glyph-name="colon" unicode=":" d="M209 278q-18 7 -24 27.5t3 39.5q10 22 30 33.5t39 3.5q18 -7 23.5 -25t-2.5 -40q-9 -22 -29.5 -34t-39.5 -5zM54 -17q-16 5 -23 26.5t3 41.5q11 22 31 32.5t39 4.5q17 -7 23 -26t-3 -40q-8 -22 -29.5 -34t-40.5 -5z"></glyph><glyph glyph-name="semicolon" unicode=";" d="M219 278q-18 7 -24.5 27t3.5 41t30 32.5t39 3.5q16 -6 22 -24.5t-2 -40.5t-28.5 -34t-39.5 -5zM26 -51q-10 5 -9 12t9 11q14 8 28 18q-21 19 -15 47q6 23 24 37t38 14q22 -1 34 -23t2 -51q-9 -28 -36.5 -49t-55.5 -20q-7 0 -19 4z"></glyph><glyph glyph-name="less" unicode="&lt;" d="M300 384q0 -15 -10.5 -35t-29.5 -34q-18 -14 -88 -48q30 -17 48 -32q33 -30 28 -67q-6 -30 -35 -11q-33 24 -117 67q-28 15 -34 56q-3 24 24 34q38 13 95.5 39.5t86.5 44.5q15 9 23.5 5t8.5 -19z"></glyph><glyph glyph-name="equal" unicode="=" d="M300 292q-27 0 -70 -3.5t-58 -3.5q-71 3 -82 58q-2 10 5 15t18 5q26 -1 87 3.5t83 3.5q74 -5 83 -59q2 -9 -4.5 -15t-19.5 -6q-26 2 -42 2zM265 189q-27 0 -74 -5.5t-66 -4.5q-73 3 -83 58q-2 9 4.5 15t18.5 6q25 0 87 4t83 4q35 0 56.5 -16.5t26.5 -41.5q2 -10 -3 -15.5 t-19 -4.5q-11 1 -31 1z"></glyph><glyph glyph-name="greater" unicode="&gt;" d="M51 172q-1 14 11 33t30 33q27 20 81 40q-34 20 -50 35q-16 14 -23.5 34t-5.5 34q4 33 35 12q73 -50 142 -79q26 -12 15 -39q-22 -42 -47 -52q-122 -46 -158 -66q-16 -8 -22.5 -5t-7.5 20z"></glyph><glyph glyph-name="question" unicode="?" d="M156 442q0 41 28 86q29 47 73 75t90 28q39 0 71 -20q57 -39 57 -109q0 -44 -22 -91q-25 -51 -71 -88.5t-116 -77.5q-85 -48 -107 -140q-9 -31 -37 -5q-19 19 -19 51q0 23 10 47q14 31 43.5 58t85.5 60q94 55 137 146q18 40 18 75q0 40 -29 40q-34 0 -80 -50.5t-82 -125.5 q-18 -33 -38 -3q-12 19 -12 44zM67 84q17 16 39.5 8.5t33.5 -33.5q7 -17 7 -31q0 -23 -15 -38q-13 -15 -35.5 -11.5t-36.5 26.5q-10 17 -10 36q0 24 17 43z"></glyph><glyph glyph-name="at" unicode="@" d="M387 103q-21 0 -43.5 15t-28.5 29q-41 -39 -86 -39q-35 0 -55.5 23.5t-20.5 61.5q0 58 43 120q44 63 91.5 96t82.5 33q39 0 54 -30l13 19q9 13 16 14.5t19 -9.5q14 -16 14 -42q0 -31 -46 -110q-27 -44 -41 -76q-29 -63 -12 -66q13 -3 38 27.5t51 87.5q26 67 26 123 q0 93 -53 116q-17 8 -39 8q-51 0 -111 -37.5t-110 -107.5q-63 -87 -63 -185q0 -92 54 -116q20 -9 44 -9q30 0 60 11.5t46 25.5q17 15 28 15q14 0 14 -14q0 -40 -43 -65q-33 -20 -83 -20q-40 0 -77 13q-116 45 -118 178q-1 66 28.5 131.5t74 113t94.5 80t93 41.5q26 5 46 5 q64 0 98 -37q39 -18 66 -65t27 -96q0 -61 -25 -119q-27 -68 -74 -106t-92 -38zM340 262q25 41 38 71.5t11.5 41.5t-8.5 14q-16 1 -50 -32t-65 -82q-36 -61 -36 -103q0 -23 8 -23q18 -1 43 28.5t59 84.5z"></glyph><glyph glyph-name="A" unicode="A" d="M308 226q21 148 57 255q-109 -132 -199 -271q40 4 59 7q74 9 83 9zM337 -9q-41 20 -42 95q0 41 3 67l-70 -7q-80 -8 -107 -7q-14 -25 -38 -72.5t-34 -65.5q-9 -15 -19.5 -14.5t-16.5 11.5q-12 24 -12 37q0 29 16 68q12 30 24 53q-21 15 -30 33q-6 14 -1.5 19t23.5 2 q20 -3 36 -4q62 108 153 229t165 184q31 25 52 -3q13 -17 23 -41q8 -19 8 -35q0 -21 -8 -41q-44 -138 -70 -281q31 -14 44 -52q4 -12 -1 -15.5t-19 -1.5l-35 6q-10 -87 -13 -150q0 -28 -31 -14z"></glyph><glyph glyph-name="B" unicode="B" d="M-1 86q0 22 15 60q63 173 183 357q-44 6 -62 43q-10 23 19 24q29 2 107.5 28.5t118.5 30.5q58 5 94.5 -30t36.5 -116q0 -53 -43 -108q-20 -28 -59.5 -59.5t-85.5 -54.5q54 -32 54 -89q0 -50 -39 -90q-29 -32 -80.5 -57.5t-97.5 -36.5q-19 -4 -42 -4q-26 0 -47 10 q-31 15 -51.5 41.5t-20.5 50.5zM253 419q-15 -28 -70 -119q116 31 192 97.5t75 120.5q0 15 -10.5 24.5t-23.5 9.5q-24 0 -133 -37q2 -37 -30 -96zM286 149q21 26 21 47q0 32 -63 38q-64 -13 -97 -4q-46 -89 -63 -144q-6 -21 -1 -29t21 -6q46 5 99 33t83 65z"></glyph><glyph glyph-name="C" unicode="C" d="M374 211q6 12 19 12.5t21 -15.5q7 -15 7 -33q0 -39 -28 -78.5t-62 -64.5q-58 -41 -129 -41q-50 0 -88 21q-37 20 -63 65.5t-27 104.5q-2 94 48 189t114.5 156t125.5 89q44 17 79 17q39 0 65 -21q60 -53 60 -108q0 -30 -14 -58q-26 -52 -38 -90q-4 -14 -14 -18.5t-25 3.5 q-34 22 -34 64q0 17 6 37q3 10 17 46q27 66 14 80q-12 13 -55 -8t-99 -72.5t-95 -114.5q-63 -102 -63 -213q0 -60 22 -92t52 -32q42 0 91.5 46.5t92.5 128.5z"></glyph><glyph glyph-name="D" unicode="D" d="M4 89q0 20 14 64q21 64 72 161.5t105 179.5q-45 6 -60 44q-4 11 -0.5 17.5t18.5 8.5q37 5 93 30q48 21 91 29q95 15 158 -89q23 -38 23 -100q0 -81 -48 -169t-136 -162.5t-195 -110.5q-18 -6 -33 -6q-23 0 -39.5 11.5t-36.5 37.5q-26 35 -26 54zM393 547q-14 0 -36 -7.5 t-48.5 -19.5t-35.5 -15q5 -44 -28 -103q-132 -222 -157 -308q-5 -18 -5 -29q0 -13 15 -7q104 40 185.5 117t120 154.5t38.5 140.5q0 36 -12 55q-14 22 -37 22z"></glyph><glyph glyph-name="E" unicode="E" d="M-24 38q-10 16 4 54q33 87 97 208t127 220q-32 21 -40 50q-2 10 4.5 15t18.5 5q72 0 156 14q68 10 88 10q64 1 84 -52q3 -9 -2.5 -14.5t-19.5 -5.5q-52 0 -151 -19q-25 -5 -40 -7q-34 -51 -126 -218q18 3 52 5q75 3 92 -48q9 -23 -20 -23q-73 0 -173 -26 q-45 -86 -69 -139q75 20 136 24q76 3 94 -47q8 -22 -19 -22q-64 1 -215 -40q-37 -11 -53 12q-4 5 -12 20t-13 24z"></glyph><glyph glyph-name="F" unicode="F" d="M-29 44q0 24 12 61q21 62 85.5 185t132.5 231q-30 17 -38 51q-2 10 3 14.5t19 4.5q65 0 149 14q58 10 92 10q68 0 90 -54q4 -9 -1 -15.5t-20 -6.5q-39 1 -196 -27q-47 -79 -119 -210q20 3 48 5q78 5 93 -49q6 -23 -20 -25q-100 -9 -172 -27q-38 -73 -101 -209 q-10 -22 -34 -7q-23 15 -23 54z"></glyph><glyph glyph-name="G" unicode="G" d="M496 214q6 -11 2 -17.5t-23 -5.5q-26 2 -56 -1q13 -62 -44.5 -122t-107.5 -74q-40 -11 -74 -11q-59 0 -100 32q-70 50 -70 156q0 76 33 152.5t82.5 134t103 98.5t97.5 56q35 12 73 12q41 0 68 -19q32 -24 46.5 -54t14.5 -55q0 -24 -13 -54q-23 -54 -38 -94 q-11 -28 -36 -8q-36 28 -36 66q0 19 9 43q23 59 28 78.5t-1 32.5q-15 15 -61.5 -5t-106 -72t-101.5 -116q-72 -110 -72 -230q0 -103 57 -103q41 0 88.5 39t82.5 104q-33 -6 -70 -10q-37 -3 -65 11.5t-40 38.5q-10 25 19 25q43 1 117 15q75 11 95 11q75 1 99 -54z"></glyph><glyph glyph-name="H" unicode="H" d="M561 460q-88 -156 -107 -191q29 -15 36 -44q2 -10 -3.5 -15t-19.5 -3q-23 3 -46 3q-53 -103 -98 -204q-6 -13 -16 -14.5t-19 11.5q-17 26 -17 51q0 23 13 62q16 45 36 85q-17 -2 -58 -8t-67 -9t-46 -3q-29 -60 -87 -188q-5 -13 -16.5 -15t-20.5 10q-17 23 -17 52 q0 35 52 158q-22 12 -32 30q-8 14 -2.5 19.5t25.5 4.5q7 0 16.5 -1.5t15.5 -1.5q47 97 105.5 203.5t89.5 151.5q24 31 42 -1q9 -17 9 -41q0 -50 -33 -111l-107 -195q23 3 80.5 13.5t88.5 13.5q50 99 105.5 196.5t84.5 136.5q27 34 43 -2q9 -20 9 -38q0 -49 -39 -116z"></glyph><glyph glyph-name="I" unicode="I" d="M-11 111q38 100 123 258.5t145 244.5q24 34 42 -1q9 -18 9 -40q0 -47 -38 -116q-175 -310 -241 -457q-12 -29 -34 -4q-18 18 -18 53q0 26 12 62z"></glyph><glyph glyph-name="J" unicode="J" d="M-9 156q9 32 30 53.5t44 27.5q17 4 24.5 -3.5t2.5 -24.5q-22 -68 -22 -110q0 -72 43 -72q26 0 53.5 21.5t55 63t49 81.5t48.5 96q131 267 170 325q23 33 42 -1q12 -19 12 -49q0 -36 -19 -78q-28 -66 -86.5 -183t-96.5 -180q-86 -143 -207 -143q-70 0 -109 36t-39 95 q0 26 5 45z"></glyph><glyph glyph-name="K" unicode="K" d="M280 -7q-7 -11 -18 -11t-18 14q-60 115 -117 198q-54 -104 -93 -199q-14 -32 -35 -5q-16 25 -16 54q0 26 9 60q19 62 114.5 250t141.5 252q22 29 41 -2q11 -20 11 -44q0 -50 -32 -106q-18 -33 -39.5 -70t-36.5 -65q236 183 331 295q8 10 17.5 7.5t13.5 -15.5 q15 -43 -33 -108q-32 -44 -120 -121.5t-187 -148.5q50 -81 68 -120q15 -36 15 -64t-17 -51z"></glyph><glyph glyph-name="L" unicode="L" d="M278 460q-175 -319 -207 -388q68 17 133 22q75 5 97 -48q9 -22 -20 -22q-58 1 -211 -39q-21 -6 -33.5 -3.5t-22.5 16.5q-23 32 -27 43q-10 26 3 61q35 89 131 265t144 241q21 28 38 -3q9 -18 9 -41q0 -44 -34 -104z"></glyph><glyph glyph-name="M" unicode="M" d="M169 77q0 16 3 35q13 84 70 268q-158 -243 -221 -388q-5 -11 -14.5 -12.5t-19.5 8.5q-18 18 -18 50q0 29 14 63q31 76 128 237t175 266q21 28 47 7q41 -35 41 -81q0 -27 -14 -72q-47 -138 -87 -285q48 73 156 206.5t167 226.5q18 29 45 4q29 -30 29 -69q0 -32 -24 -82 q-155 -290 -217 -467q-9 -26 -32 -6q-23 21 -23 57q0 28 8 57v-1q15 57 110 252q-165 -212 -244 -355q-14 -25 -35 -9q-44 34 -44 90z"></glyph><glyph glyph-name="N" unicode="N" d="M211 82q-3 44 -3 73q0 103 13 226q-127 -218 -186 -383q-3 -10 -9 -14t-13 -2t-14 10q-19 25 -19 56q0 26 13 60q36 94 114 243.5t141 254.5q17 29 40 10q44 -32 44 -79q0 -18 -5 -48q-18 -105 -30 -300q112 235 231 421q20 28 38 -3q9 -18 9 -39q0 -49 -37 -109 q-43 -71 -119 -217t-121 -245q-11 -21 -34 -9q-48 24 -53 94z"></glyph><glyph glyph-name="O" unicode="O" d="M393 628q53 0 81 -30q91 -41 91 -161q0 -112 -64 -230q-55 -101 -129 -164t-155 -63q-34 0 -67 12q-119 44 -119 190q0 75 31 150.5t77.5 132t98 97t95.5 56.5q29 10 60 10zM184 35q48 0 111 56t115 150q68 126 68 234q0 76 -31 88q-37 13 -113 -39.5t-140 -149.5 q-73 -113 -73 -230q0 -52 17 -80.5t46 -28.5z"></glyph><glyph glyph-name="P" unicode="P" d="M238 401q-4 -6 -76 -133q137 31 215.5 115.5t62.5 142.5q-6 20 -32 20q-23 0 -94 -25q-24 -9 -38 -13q-2 -41 -38 -107zM-17 49q0 25 7 50q19 65 77.5 182.5t123.5 219.5q-42 9 -58 44q-11 23 19 26q39 3 113 29q59 21 109 24q99 4 128 -85q13 -32 10 -64t-12.5 -56 t-28.5 -53q-41 -63 -116.5 -114t-164.5 -63q-42 -6 -67 4q-54 -104 -91 -193q-10 -24 -30 -4q-19 21 -19 53z"></glyph><glyph glyph-name="Q" unicode="Q" d="M247 -14l24 -13q109 -60 163 -49q15 3 21.5 -0.5t5.5 -9t-7 -11.5q-37 -40 -97 -40q-11 0 -21 1t-20.5 3.5t-19 5t-19.5 7t-17 7t-17.5 9t-15 8.5t-16 9.5t-14.5 8.5q-29 18 -47 27.5t-45 18t-53 8.5q-17 0 -47 -5q-14 -3 -20.5 3t1.5 16q29 35 102 40q-60 56 -60 154 q1 145 100.5 271t197.5 160q31 11 62 11q50 0 81 -31q88 -39 88 -158q0 -110 -63 -231q-48 -89 -112 -149t-135 -71zM181 37q48 0 109.5 55t111.5 148q70 127 70 235q0 74 -31 87q-35 15 -111.5 -38.5t-139.5 -149.5q-73 -111 -73 -228q0 -109 64 -109z"></glyph><glyph glyph-name="R" unicode="R" d="M316 -7q-17 -26 -34 -3q-113 149 -150 191q-39 -77 -81 -180q-11 -29 -33 -6q-19 21 -19 53q0 25 7 50q19 67 78 186.5t123 219.5q-40 7 -59 41q-12 21 18 25q49 7 114 29q69 22 110 24q93 3 127 -83q34 -85 -31 -175q-38 -51 -109.5 -94t-153.5 -64q60 -72 89 -128 q14 -26 14 -52q0 -17 -10 -34zM330 523l-39 -13q-1 -41 -38 -110q-19 -35 -70 -123q140 36 217 115t55 134q-8 21 -32 21q-23 0 -93 -24z"></glyph><glyph glyph-name="S" unicode="S" d="M-40 111q-19 24 7 33q12 3 31 3q47 0 78 -25q100 -82 163 -82q37 0 53 16q10 12 9 23.5t-10 18.5q-18 14 -62 42t-72 47.5t-52.5 53t-24.5 69.5q0 48 25.5 97t64.5 87t79.5 66t76.5 43q40 17 77 17q36 0 61 -21q40 -38 53 -86q11 -43 -30 -103q-18 -24 -67 -108 q-16 -28 -39 -4q-24 24 -24 54q0 43 46 104q54 80 38 91q-14 10 -56 -9.5t-86.5 -54t-80.5 -83t-38 -88.5q-1 -30 30 -58.5t85 -59t58 -33.5q30 -22 30 -51q0 -34 -39 -80q-44 -51 -135 -51q-59 0 -126 33.5t-123 98.5z"></glyph><glyph glyph-name="T" unicode="T" d="M37 51q0 21 6 40q19 64 84 193t130 229q-30 -4 -43 -4q-49 0 -80 16.5t-39 45.5q-4 19 19 19q47 0 163.5 13.5t141.5 13.5q84 0 103 -54q4 -10 -1 -16.5t-21 -5.5q-45 5 -155 -13q1 -43 -71 -169q-118 -213 -182 -358q-12 -27 -34 -5q-21 20 -21 55z"></glyph><glyph glyph-name="U" unicode="U" d="M131 -23q-31 0 -58 11q-81 33 -81 124q0 29 7 60q32 131 230 434q21 30 42 -1q13 -21 13 -45q0 -40 -31 -98q-6 -11 -54.5 -95t-76.5 -142t-40 -105q-7 -32 -7 -47q0 -47 37 -47t83.5 52.5t92.5 142.5q115 223 217 386q19 31 41 -1q10 -18 10 -41q0 -39 -22 -86 q-29 -65 -103 -198.5t-120 -196.5q-78 -107 -180 -107z"></glyph><glyph glyph-name="V" unicode="V" d="M189 465q-42 -184 -70 -334q76 117 188.5 264.5t178.5 217.5q20 20 31 -2q29 -54 -108 -230q-114 -146 -283 -388q-17 -25 -43 -7q-50 38 -50 104q0 9 2 33q13 114 44 260t58 218q16 38 40 8q22 -28 22 -67q0 -33 -10 -77z"></glyph><glyph glyph-name="W" unicode="W" d="M293 80q0 23 6 53q12 55 67 225q-152 -206 -251 -365q-18 -29 -46 -7q-38 34 -38 83q0 22 8 59q26 111 76.5 255t87.5 215q23 40 44 4q13 -23 13 -49q0 -37 -33 -126q-8 -22 -22 -58t-22 -56.5t-20.5 -58t-25.5 -81.5q140 216 304 413q22 26 41 -2q19 -25 19 -53 q0 -27 -18 -80q-5 -14 -27.5 -78t-37 -111.5t-31.5 -112.5q36 56 87.5 126t86.5 115t97 122.5l78 97.5q14 16 25 13.5t13 -20.5q4 -31 -17 -76.5t-91 -135.5q-198 -256 -287 -393q-21 -29 -45 -6q-41 41 -41 88z"></glyph><glyph glyph-name="X" unicode="X" d="M179 617q62 -11 85 -91q9 -33 21 -119q112 115 210 205q31 29 40 -9q13 -62 -68 -141q-140 -135 -167 -162q32 -226 71 -288q8 -16 2 -22.5t-22 -4.5q-80 6 -111 131q-13 57 -21 101q-125 -130 -192 -225q-10 -12 -20 -10.5t-15 14.5q-6 15 -6 30q0 33 29 78 q44 67 188 217q-26 178 -49 276q-3 11 4.5 16.5t20.5 3.5z"></glyph><glyph glyph-name="Y" unicode="Y" d="M181 196q-65 -129 -91 -202q-11 -29 -32 -11q-24 20 -24 61q0 25 7 49q18 55 61 142q4 249 28 364q6 31 31 17q20 -13 33.5 -44.5t12.5 -76.5q-1 -28 -6.5 -80.5t-7.5 -87.5q132 142 289 285q9 8 16.5 10.5t12.5 -1t7 -11.5q15 -66 -60 -140q-189 -179 -277 -274z"></glyph><glyph glyph-name="Z" unicode="Z" d="M544 531q9 -27 -27 -52q-101 -74 -226.5 -191.5t-213.5 -220.5q92 21 151 27q74 6 98 -46q8 -22 -20 -22q-81 0 -243 -45q-21 -6 -35.5 5.5t-36.5 51.5q-14 27 6 58q55 82 195.5 218.5t254.5 221.5q-14 -3 -60 -12.5t-65 -11.5q-93 -10 -115 54q-8 23 15 23 q53 -1 138.5 13.5t100.5 14.5q35 0 50 -20q19 -27 33 -66z"></glyph><glyph glyph-name="bracketleft" unicode="[" d="M482 650q6 -8 0.5 -16.5t-19.5 -9.5q-41 -3 -95 -17q-78 -113 -168 -283t-151 -317q10 3 18 4q57 10 81 -35q6 -9 2 -17t-19 -9q-38 -3 -87 -23q-26 -10 -46 11q-9 9 -25 33q-12 22 -2 56q44 122 139 311.5t184 309.5q15 21 42 30q28 9 72 11q30 1 48 -12q16 -13 26 -27z "></glyph><glyph glyph-name="backslash" unicode="\" d="M245 42q-25 74 -58 269.5t-41 316.5q-1 18 10 22.5t25 -4.5q54 -29 70 -140q53 -373 90 -525q2 -11 -4.5 -16t-19.5 -3q-48 7 -72 80z"></glyph><glyph glyph-name="bracketright" unicode="]" d="M-50 -18q37 12 100 21q66 150 155 320.5t163 282.5l-31 -6q-32 -7 -64 37q-18 26 17 32q104 16 118 16q29 0 37 -16l19 -36q10 -20 -2 -39q-169 -258 -342 -633q-13 -27 -41 -31q-29 -4 -56 -10q-33 -7 -54 7q-15 10 -30 25q-8 7 -5.5 16t16.5 14z"></glyph><glyph glyph-name="asciicircum" unicode="^" d="M262 378q-53 -3 -67 47q-4 11 -13 50q-12 -16 -29 -38t-27 -35t-15 -22q-9 -12 -15.5 -13.5t-18.5 8.5q-17 15 -17 39q0 21 15 44q48 76 112 149q15 17 36 3q24 -17 29 -53q11 -92 29 -158q3 -13 -0.5 -16.5t-18.5 -4.5z"></glyph><glyph glyph-name="underscore" unicode="_" d="M3 -59h424q13 0 19.5 -6t2.5 -16q-8 -17 -31 -29.5t-58 -12.5h-424q-16 0 -21 5t-1 17q6 17 30 29.5t59 12.5z"></glyph><glyph glyph-name="grave" unicode="`" d="M-50 483q-18 11 1 24q14 9 41 9q22 0 40 -9q46 -24 88 -60q18 -15 -4 -24q-28 -12 -59 1q-41 18 -107 59z"></glyph><glyph glyph-name="a" unicode="a" d="M46 237q56 81 113.5 121.5t99.5 40.5q52 0 67 -44l19 31q9 15 20.5 16.5t20.5 -9.5q14 -17 16 -46t-16 -70q-8 -16 -38.5 -65t-51 -92.5t-20.5 -73.5q0 -24 14 -24q25 0 58.5 39.5t60.5 93.5q16 29 30 0q13 -30 -4 -65q-20 -43 -63.5 -75.5t-87.5 -32.5q-73 0 -87 63 q-61 -59 -114 -59q-43 0 -67 28t-24 74q0 74 54 149zM96 30q43 0 128 145q57 99 57 143q0 19 -12 19q-16 0 -60 -43.5t-80 -101.5q-47 -74 -47 -132q0 -30 14 -30z"></glyph><glyph glyph-name="b" unicode="b" d="M267 308q0 34 -14 34q-20 0 -58 -37q-54 -57 -124 -200q2 -23 13 -41t26 -18q52 0 117 133q40 79 40 129zM352 297q0 -68 -36 -146q-35 -78 -80 -120t-92 -42q-70 0 -102 53l-20 -44q-14 -31 -34 -5q-30 41 -6 113q22 66 123 255.5t164 282.5q23 33 42 -1q10 -17 10 -42 q0 -46 -35 -109q-7 -12 -30 -50.5t-39 -65.5q32 18 56 18q40 0 59.5 -26t19.5 -71z"></glyph><glyph glyph-name="c" unicode="c" d="M212 396q26 0 54 -20t41 -44q16 -35 -20 -109q-10 -18 -18 -41q-5 -14 -13 -16.5t-23 5.5q-35 21 -35 57q0 22 23 74q18 37 13 42q-6 5 -26 -12t-46 -51.5t-45 -72.5q-30 -62 -30 -112q0 -33 12.5 -52t32.5 -20q51 -1 99 39.5t85 96.5q7 12 16 13t14 -11q11 -29 -13 -67 q-29 -46 -84.5 -77.5t-112.5 -32.5q-67 -1 -105 37.5t-38 100.5q0 57 31 116q37 74 89.5 115.5t98.5 41.5z"></glyph><glyph glyph-name="d" unicode="d" d="M473 457q-20 -38 -91.5 -165.5t-98.5 -183.5q-18 -39 -18 -64q0 -22 13 -22q25 0 57.5 38.5t60.5 93.5q8 14 16.5 14t15.5 -14q14 -26 -4 -65q-21 -43 -63 -74.5t-84 -31.5q-79 0 -90 61q-56 -58 -114 -58q-42 0 -66 28.5t-24 73.5q0 71 53 148q55 79 112.5 119.5 t100.5 40.5q52 0 64 -40q95 178 148 254q26 37 42 -1q9 -22 9 -39q0 -42 -39 -113zM212 173q81 157 53 162q-22 1 -65 -41t-82 -103q-46 -72 -46 -130q0 -31 15 -31q24 0 57.5 38.5t67.5 104.5z"></glyph><glyph glyph-name="e" unicode="e" d="M249 341q-8 6 -31 -10t-53.5 -53t-52.5 -82q11 -7 22 -7q34 0 76 57q22 30 34.5 59t4.5 36zM324 301q0 -51 -47 -108t-108 -57q-37 0 -71 22q-9 -30 -9 -59q0 -34 13 -54.5t35 -20.5q94 0 184 136q9 12 17.5 12t14.5 -14q4 -4 1 -25.5t-15 -39.5q-32 -47 -87.5 -77.5 t-112.5 -31.5q-68 -1 -106 38.5t-38 101.5q0 56 31 115q37 75 90.5 117t100.5 42q22 0 35 -8q43 -24 62 -52q10 -15 10 -37z"></glyph><glyph glyph-name="f" unicode="f" d="M274 462q-14 -24 -46 -78.5t-61 -104.5t-50 -92q59 -21 49 -129q45 36 79 108q9 17 21 17t19 -19q7 -21 -9 -62q-9 -22 -43 -54.5t-74 -48.5q-11 -75 -41 -151.5t-66 -122.5q-30 -37 -66 -37q-30 0 -57.5 41t-27.5 96q0 72 39.5 182.5t101.5 227.5t116.5 209.5 t106.5 170.5q9 14 21 14q10 0 19.5 -14.5t9.5 -38.5q0 -42 -41 -114zM98 39q7 25 7 51q0 55 -11 50q-5 -2 -9 -24t-4 -41q0 -29 17 -36zM-29 -216q0 -34 9 -34q16 0 48.5 77.5t53.5 162.5q-30 7 -46 24q-65 -161 -65 -230z"></glyph><glyph glyph-name="g" unicode="g" d="M435 151q0 -31 -19 -60q-50 -78 -189 -129q-113 -275 -207 -319q-41 -15 -70 23q-29 44 -29 78q0 67 63.5 135t155.5 100l13 33q-37 -25 -75 -25q-42 0 -66 27.5t-24 73.5q0 68 46.5 141.5t109 120t111.5 46.5q48 0 64 -42q1 2 4 7.5t6 10.5l6 10q9 17 21.5 18t21.5 -11 q16 -20 16 -51q0 -32 -36 -104q-89 -176 -105 -212q97 60 151 134q6 8 13.5 11t12.5 -1t5 -15zM90 29q23 -1 56 37.5t72 106.5q57 99 57 143q0 18 -10 18q-18 0 -62.5 -43t-85 -110t-40.5 -120q0 -32 13 -32zM111 -87q-58 -42 -94 -101q-21 -36 -30.5 -67t-1.5 -38 q7 -5 24.5 15.5t40.5 61.5q36 63 61 129z"></glyph><glyph glyph-name="h" unicode="h" d="M405 92q-23 -45 -67 -76.5t-91 -31.5q-96 0 -96 85q0 74 87 209q31 55 27 57q-6 0 -32 -18.5t-63.5 -55t-61.5 -75.5q-59 -97 -94 -185q-6 -14 -16 -15.5t-19 9.5q-15 18 -18 37t13 72q30 78 143.5 271.5t175.5 272.5q24 31 40 -4q8 -18 8 -38q0 -43 -36 -106 q-45 -74 -92 -140q46 34 84 34q22 0 40 -20.5t18 -49.5q0 -23 -11 -42q-86 -154 -91 -164q-13 -32 -13 -59q0 -34 19 -34q25 0 59 40.5t59 91.5q5 12 15 12t16 -12q13 -32 -3 -65z"></glyph><glyph glyph-name="i" unicode="i" d="M153 441q0 21 13.5 37.5t30.5 16.5q20 0 37.5 -21.5t17.5 -43.5q0 -21 -11 -35.5t-29 -14.5q-24 0 -41.5 18.5t-17.5 42.5zM227 90q-22 -46 -67.5 -75.5t-90.5 -29.5q-44 0 -66 23t-22 62q0 27 12 66q18 50 57 123.5t69 114.5q21 28 40 7q16 -17 17.5 -45.5t-16.5 -67.5 q-9 -21 -41 -79.5t-41 -78.5q-14 -36 -14 -60q0 -25 15 -25q28 0 63 40t60 95q6 13 14.5 12.5t15.5 -14.5q15 -28 -5 -68z"></glyph><glyph glyph-name="j" unicode="j" d="M238 463v1q8 -15 8 -31q0 -21 -16 -39q-12 -16 -35.5 -12.5t-36.5 27.5q-10 17 -10 36q0 24 17 41q16 18 39 10.5t34 -33.5zM156 271q-23 -51 -51 -105q-55 -110 -78 -161q88 53 157 153q9 13 19 13.5t16 -15.5q7 -23 -15 -62q-46 -83 -204 -152q-56 -129 -106.5 -216.5 t-103.5 -111.5q-41 -17 -69 22q-32 48 -32 91q0 17 9 44q40 120 213 187q48 117 107 237t99 182q19 28 40 7q15 -16 15 -47q0 -34 -16 -66zM-108 -97q-63 -43 -105 -107q-27 -40 -37.5 -75t-1.5 -46q6 -9 25 16.5t50 81.5q0 1 69 130z"></glyph><glyph glyph-name="k" unicode="k" d="M316 604q0 -6 -1.5 -14t-5 -18t-7 -19t-10.5 -23l-12 -24t-15 -28.5t-16.5 -29.5t-18.5 -33t-19 -35q21 15 52 26q62 22 94 -46q12 -22 12 -48q0 -39 -35 -73q-54 -53 -132 -79q3 -56 19.5 -93t38.5 -37q24 0 59 40.5t58 87.5q20 40 34 1q10 -26 -12 -64q-21 -39 -60 -73 t-95 -33q-60 1 -97 50t-37 149q-31 -55 -86 -184q-6 -11 -16 -13t-19 9q-16 18 -16 46q0 29 13 67q35 99 124 271t153 260q26 32 43 -1q10 -20 10 -39zM302 357q-5 10 -30 0.5t-59 -35.5q-46 -35 -92 -112q27 9 68.5 29.5t63.5 38.5q29 24 42.5 46.5t6.5 32.5z"></glyph><glyph glyph-name="l" unicode="l" d="M341 536q0 -22 -6 -42q-22 -83 -88.5 -165t-139.5 -131q-33 -84 -33 -131q0 -41 19 -41q33 0 72 40.5t70 98.5q6 12 15 16.5t16.5 0t10.5 -17.5q8 -28 -10 -65q-16 -32 -67 -72t-106 -40q-47 0 -73 26.5t-26 77.5q0 29 7 57q28 119 100 245.5t150 208.5q31 31 56 7 q33 -29 33 -73zM285 511q-7 3 -64 -96q-69 -117 -77 -136q59 58 100 127q16 27 27 51t14 38t0 16z"></glyph><glyph glyph-name="m" unicode="m" d="M167 391q14 -23 14 -48q0 -12 -3 -27q34 33 71 56.5t60 23.5t38 -23t15 -55q84 74 130 73q21 -1 33 -18t12 -43q0 -48 -62 -143q-54 -83 -54 -122t26 -39q38 0 117 131q13 22 28 7q8 -8 8.5 -31.5t-8.5 -40.5q-21 -44 -68 -76t-93 -32q-50 0 -77.5 25t-27.5 66 q0 31 15 65q20 43 72 124q5 8 13 19t12 17t9 14t5 9.5t-1 3.5q-19 0 -88 -69q-87 -87 -168 -266q-16 -30 -40 -6q-22 22 -22 55q0 29 18 74q17 43 74 132q7 11 16 26t14.5 23t11 18t5.5 12t-1 4q-5 0 -17.5 -7.5t-37 -29t-52.5 -51.5q-70 -75 -141 -243q-12 -27 -35 -7 q-24 21 -24 53q0 22 11 54q16 46 62.5 135t91.5 157q10 14 20 14t18 -14z"></glyph><glyph glyph-name="n" unicode="n" d="M164 389q13 -22 13 -47q0 -14 -1 -20q78 73 127 73q22 0 39 -22.5t17 -50.5q0 -22 -50 -110q-66 -105 -66 -154q0 -34 20 -34q24 0 58.5 39t63.5 93q7 14 17 14.5t16 -10.5q7 -8 6 -29.5t-11 -40.5q-22 -42 -69.5 -75t-91.5 -33q-96 0 -96 86q0 73 85 208q19 30 27 44.5 t3 14.5t-20.5 -9t-41.5 -31t-51 -50q-56 -59 -141 -246q-13 -29 -36 -6q-22 22 -22 55q0 22 9 52q14 42 62.5 130.5t95.5 158.5q10 14 20 14t18 -14z"></glyph><glyph glyph-name="o" unicode="o" d="M345 212q-10 -11 -26 -14q-17 -67 -62 -127.5t-99 -79.5q-18 -6 -36 -6q-59 0 -98 51q-28 37 -28 87q0 64 42 140q34 61 79.5 95.5t94.5 34.5q39 0 66 -37q5 -6 14 -15t13 -13.5t10.5 -14.5t7.5 -19t3.5 -26.5t-1.5 -36.5q12 0 18.5 -2.5t6 -7t-4.5 -9.5zM250 251 q14 32 14 60q0 21 -15 21q-5 0 -10 -6.5t-5 -17.5q0 -38 16 -57zM74 78q0 -42 24 -42q20 0 48 27.5t55 77.5q25 43 33 72q-50 31 -61 81q-31 -30 -57 -75q-42 -78 -42 -141z"></glyph><glyph glyph-name="p" unicode="p" d="M149 235l-32 -54q-15 -30 -19 -62.5t2 -53t19 -20.5q23 0 54.5 37.5t62.5 100.5q36 70 36 131q0 29 -7 32q-14 6 -49.5 -26.5t-66.5 -84.5zM357 284q0 -61 -39 -142q-36 -83 -89 -126q51 10 93 50t67 89q6 11 14 14t14.5 -1.5t8.5 -14.5q6 -32 -14 -68 q-61 -109 -212 -109q-117 0 -151 81q-75 -139 -129 -266q-13 -30 -30 -10q-20 25 -20 54q0 28 12 65q21 70 114.5 247.5t141.5 241.5q23 29 39 7q10 -14 10 -37q44 30 81 30q42 0 65.5 -31.5t23.5 -73.5z"></glyph><glyph glyph-name="q" unicode="q" d="M65 -197q0 46 66 193q-24 -11 -50 -11q-42 0 -66 28.5t-24 73.5q0 71 53 149q55 81 112.5 120.5t101.5 39.5q56 0 67 -44q16 24 27 35q23 23 41 -3q9 -13 9 -38q0 -40 -30 -94q-6 -10 -41.5 -74.5t-47 -86t-41.5 -78t-46.5 -89.5t-38.5 -78.5t-38 -84.5q-13 -29 -35 -6 q-19 23 -19 48zM92 27q47 0 131 146q57 99 57 143q0 19 -9 19q-20 0 -63 -42t-81 -102q-47 -73 -47 -133q0 -31 12 -31z"></glyph><glyph glyph-name="r" unicode="r" d="M165 437q30 0 30 -35q0 -28 -18 -80q36 9 81 42q24 17 40 1q29 -29 29 -64q0 -20 -16 -39q-111 -127 -111 -200q0 -42 22 -42q24 0 52 35t53 90q6 14 15 14t16 -13q13 -26 -3 -65q-18 -43 -57.5 -71.5t-82.5 -28.5q-44 0 -69 27.5t-25 69.5q0 76 103 202q-34 -14 -73 -16 q-8 -14 -30 -52t-30 -51.5t-24 -42.5t-23 -43.5t-16.5 -35.5t-14.5 -36.5t-8 -29.5q-3 -15 -12 -18t-23 10q-25 24 -25 59q0 33 21 72q46 87 123 182q-19 17 -19 37q0 37 35 79.5t60 42.5z"></glyph><glyph glyph-name="s" unicode="s" d="M115 31q30 0 30 115q0 50 -3 91q-43 -68 -82 -124q9 -36 24 -59t31 -23zM-22 127q0 50 32 78q15 13 25.5 9.5t12.5 -21.5q59 84 94 142q6 50 39 78q24 21 49 21q46 0 2 -73q-2 -24 -2 -42q0 -35 6 -99t5 -91q-2 -45 -17 -75q62 42 87 110q7 16 16 14.5t15 -14.5 q14 -28 -10 -69q-28 -51 -76.5 -80t-106.5 -31q-110 -4 -154 77q-17 29 -17 66z"></glyph><glyph glyph-name="t" unicode="t" d="M-9 97q0 36 20 83q36 89 98 200q-43 6 -57 27q-10 16 -4.5 23.5t23.5 6.5q34 -1 72 2q40 70 75 120q21 31 38 2q11 -19 11 -41q0 -32 -16 -69q39 -5 55 -32q8 -14 2.5 -21.5t-23.5 -5.5q-24 3 -66 -3q-92 -157 -130 -240q-18 -41 -18 -75q0 -51 27 -51q28 0 63.5 39.5 t62.5 98.5q5 12 13.5 16.5t16.5 0t11 -17.5q6 -25 -10 -59t-63 -75t-102 -41q-41 0 -70 31t-29 81z"></glyph><glyph glyph-name="u" unicode="u" d="M431 90q-23 -44 -67 -76t-89 -32q-86 0 -93 74q-62 -69 -130 -69q-36 0 -53.5 23t-17.5 58q0 34 13 69q41 119 135 250q21 27 43 0q15 -19 15 -46q0 -18 -18.5 -57.5t-48 -95t-41.5 -81.5q-14 -31 -14.5 -53.5t15.5 -23.5q36 0 130 148q26 43 64 114t57 96q24 32 42 6 q15 -21 15 -52q0 -43 -56 -136q-68 -110 -68 -154q0 -28 19 -28q23 0 56 39t64 93q8 13 18.5 14t16.5 -13q13 -29 -7 -67z"></glyph><glyph glyph-name="v" unicode="v" d="M130 270q-35 -138 -44 -192q54 83 125 176t115 139q32 31 37 -7q5 -34 -42 -90q-63 -76 -88 -106.5t-67 -86.5t-76 -110q-13 -21 -33 -12q-32 15 -44.5 35.5t-10.5 59.5q3 55 21.5 146.5t43.5 165.5q5 14 14.5 17t21.5 -7q34 -30 34 -74q0 -26 -7 -54z"></glyph><glyph glyph-name="w" unicode="w" d="M238 48q0 -22 13 -22q21 0 58.5 41.5t76.5 109.5q5 50 18 91t27 64.5t30 39.5t26.5 22t17.5 6q28 0 21 -41q-9 -58 -86 -187q-115 -191 -210 -188q-29 1 -47.5 18.5t-24.5 43.5q-53 -57 -111 -57q-34 0 -51 21.5t-17 56.5q0 37 13 70q56 139 137 251q9 12 19.5 13 t18.5 -9q20 -27 20 -51q0 -35 -35 -91q-46 -73 -79 -147q-12 -32 -12 -55q0 -19 9 -19q18 0 40.5 29.5t61.5 94.5q23 38 84 147q31 59 54 88q20 26 38 7q40 -43 3 -118q-5 -10 -39.5 -67.5t-55.5 -102.5q-18 -36 -18 -59z"></glyph><glyph glyph-name="x" unicode="x" d="M11 0q4 41 62 104q18 20 88 80q-25 158 -32 158q-17 0 -63 -97q-6 -13 -18 -14t-17 12q-8 20 6 57q13 36 49 64.5t73 28.5q30 0 48 -17.5t26 -57.5q8 -38 12 -67q82 70 129 130q9 12 18 16.5t15 -1.5t6 -21q0 -42 -56 -103q-22 -25 -102 -90q13 -94 15 -104 q11 -49 25 -49q34 0 92 125q7 14 17 14.5t16 -11.5q14 -26 -7 -67q-24 -46 -62 -76t-77 -30q-50 0 -73 32t-29 96q-69 -58 -120 -120q-12 -14 -28 -14t-13 22z"></glyph><glyph glyph-name="y" unicode="y" d="M402 166q10 -32 -14 -68q-28 -43 -74 -73.5t-114 -58.5q-27 -66 -45 -105t-46.5 -92t-58 -84.5t-60.5 -43.5q-39 -15 -68 23q-30 42 -30 83q0 20 9 47q43 119 209 186l15 35q-38 -28 -82 -28q-35 0 -53.5 23t-18.5 57t13 70q48 131 134 249q21 28 39 2q19 -27 19 -48 q0 -35 -35 -91q-46 -74 -74 -142q-30 -76 3 -76q36 0 120 142q36 60 71.5 127t46.5 83q21 26 38 9q19 -19 19 -51t-18 -67q-90 -173 -122 -248q89 54 145 133q10 13 19.5 15t12.5 -8zM84 -85q-65 -45 -103 -115q-18 -34 -24 -63t2 -34q5 -4 19.5 15t36.5 57q31 55 69 140z "></glyph><glyph glyph-name="z" unicode="z" d="M-18 -199q0 20 10 44q48 104 200 167q10 50 -26 50q-38 0 -86 -31q-23 -18 -32 4q-21 59 47 99q66 39 112.5 81.5t63 74.5t3.5 48q-17 21 -90.5 -22.5t-126.5 -107.5q-11 -12 -20.5 -10t-13.5 16q-14 54 43 110q34 33 81.5 54t90.5 21q55 0 83 -40q20 -28 20 -60 q0 -36 -24 -75q-38 -62 -131 -123q26 -3 45 -20t27 -41q57 38 100 117q6 11 17.5 12.5t17.5 -8.5q14 -22 -12 -70q-29 -52 -118 -93q-1 -74 -59 -166.5t-110 -121.5q-17 -10 -32 -10q-24 0 -46 25q-34 40 -34 76zM179 -41q-63 -39 -105 -98q-17 -24 -24 -47t-3.5 -36 t13.5 -13q18 0 62 71q33 54 57 123z"></glyph><glyph glyph-name="braceleft" unicode="{" d="M264 424q-21 -41 -23 -45q-34 -63 -88 -73q16 -21 16 -42q0 -19 -8.5 -39t-41.5 -78q-61 -99 -56 -135q3 -18 -6 -23t-26 5q-39 25 -39 72q0 20 9 42q11 28 43.5 79t41.5 73q10 30 -5 47q-8 9 -3.5 19t20.5 11q23 2 43 29q11 13 48 94t56 111q22 32 54.5 42.5t62.5 3.5 q9 -2 12.5 -6.5t1.5 -10.5t-9 -11q-16 -12 -37 -44.5t-32 -54t-34 -66.5z"></glyph><glyph glyph-name="bar" unicode="|" d="M2 82q26 74 127.5 268t166.5 292q12 17 24 16t19 -18q8 -16 8 -34q0 -48 -41 -118q-207 -371 -265 -514q-12 -28 -35 -3q-16 18 -16 49q0 23 12 62z"></glyph><glyph glyph-name="braceright" unicode="}" d="M97 181q12 26 24 46q34 59 86 72q-13 17 -13 41q0 31 18 63q2 4 34.5 57t46 85t8.5 52q-4 16 3.5 21t26.5 -2q47 -16 47 -64q0 -16 -6 -32q-13 -36 -64 -118q-31 -53 -33 -58q-12 -31 3 -46q9 -10 4 -18.5t-23 -13.5q-18 -4 -39 -31q-14 -18 -47 -92q-39 -82 -53 -104 q-41 -61 -118 -47q-11 2 -14.5 7t-1 10.5t11.5 11.5q28 17 92 146q5 9 7 14z"></glyph><glyph glyph-name="asciitilde" unicode="~" d="M60 211q-16 -8 -22.5 -3t-1.5 18q6 18 24 37t42 23q20 3 74 -9q46 -11 74 -11q22 0 37 7t23 2.5t1 -18.5q-20 -47 -56 -57q-23 -6 -98 7q-50 10 -68 10q-15 0 -29 -6z"></glyph><glyph glyph-name="nonbreakingspace" unicode=" "></glyph><glyph glyph-name="exclamdown" unicode="¡" d="M371 500q-15 -16 -38.5 -8.5t-34.5 32.5q-17 37 8 70q11 15 34.5 10.5t36.5 -25.5q12 -21 12 -36q0 -23 -18 -43zM308 379q-32 -83 -95.5 -206t-117.5 -202q-10 -16 -22.5 -16t-20.5 18q-8 22 -8 38q0 49 37 116q112 198 187 361q7 14 14 15.5t21 -10.5q18 -20 18 -51 q0 -24 -13 -63z"></glyph><glyph glyph-name="cent" unicode="¢" d="M50 223q0 61 44.5 126t102.5 104t99 34q32 55 58 97q17 30 35 2t-13 -93l-18 -38q21 -19 28 -37q14 -33 -22 -105q-1 -2 -9.5 -18t-11.5 -23q-13 -26 -38 -10q-30 18 -30 49q0 28 22 67q25 49 15 55q-15 9 -57 -26.5t-80 -97t-38 -113.5q0 -49 28 -60q25 -9 59 11t57 58 q17 30 34 2q18 -31 -14 -72q-39 -50 -108 -50q-11 0 -31 2q-16 -29 -42 -83q-4 -11 -10.5 -14.5t-12.5 -1t-11 11.5q-14 27 4 78l13 35q-53 41 -53 110z"></glyph><glyph glyph-name="sterling" unicode="£" d="M418 433q0 -41 -35 -76q-38 -40 -86 -30q-8 2 -12.5 8.5t2.5 16.5q29 31 49 69.5t10 45.5q-8 5 -34 -10t-53 -40q-21 -19 -36.5 -45.5t-14.5 -47.5q75 8 90 -41q4 -10 1 -14t-17 -4q-25 0 -63 -4q5 -37 -16 -66l24 3q64 8 86 -43q9 -19 -18 -19q-63 0 -168 -35 q-25 -9 -39 8l-25 31q-16 20 9 32q61 33 85 73l-20 -3q-27 -4 -48 7.5t-29 30.5q-9 21 17 21q23 -1 75 12q-12 36 -12 55q0 51 65 110q53 46 108 46q37 0 65 -21q40 -29 40 -70z"></glyph><glyph glyph-name="currency" unicode="¤" d="M214 455q48 9 84 -24q50 53 77 72q19 12 30 8t13 -19q3 -31 -26 -60q-3 -3 -10 -10.5t-17.5 -18.5t-18.5 -19q22 -27 22 -63q1 -51 -25.5 -100.5t-69.5 -76.5q10 -51 12 -86q1 -22 -16 -30q-19 -10 -30 8q-13 23 -32 84q-52 0 -91 26q-49 -48 -73 -64q-25 -16 -41 -7 q-16 8 -4 26q9 14 74 86q-22 30 -22 72q0 43 24 91q25 47 72 80q-15 59 -15 93q-1 19 8.5 24t24.5 1q32 -11 40 -46q10 -45 10 -47zM154 173q21 -13 51.5 8t54.5 70q25 50 25 98q0 43 -13 49q-19 12 -54.5 -12.5t-60.5 -71.5q-21 -43 -21 -85q0 -45 18 -56z"></glyph><glyph glyph-name="yen" unicode="¥" d="M339 245q3 -9 -1.5 -14t-16.5 -4q-48 5 -106 -7q-16 -33 -47 -116q-10 -25 -35 -6t-25 51q0 24 14 60q-59 0 -74 42q-7 20 18 20q36 0 77 6q-12 112 -3 218q1 16 11.5 20.5t23.5 -2.5q29 -14 38.5 -34t8.5 -61l-2 -90q107 128 174 186q17 14 27 11t10 -21q0 -34 -47 -86 q-32 -37 -119 -126q57 0 74 -47z"></glyph><glyph glyph-name="brokenbar" unicode="¦" d="M191 469q10 22 49.5 86.5t55.5 86.5q12 17 24 16t19 -18q8 -16 8 -34q0 -48 -41 -118q-42 -72 -66 -126q-8 -18 -14.5 -22.5t-20.5 3.5q-27 23 -27 58q0 38 13 68zM2 82q3 8 13 39t17 49.5t18.5 45.5t25 48t27.5 36q15 16 27 14t19 -18q8 -18 8 -34q0 -39 -26 -96 q-6 -12 -26.5 -53.5t-38 -79t-25.5 -59.5q-5 -13 -15 -13.5t-20 10.5q-16 18 -16 49q0 23 12 62z"></glyph><glyph glyph-name="section" unicode="§" d="M227 116q46 6 75 25t29 39q0 11 -11 25.5t-20.5 23t-32.5 26.5q-24 16 -37 29q-36 -16 -57.5 -41.5t-21.5 -47.5t18.5 -39t57.5 -40zM345 295q27 -21 41.5 -34t28 -33t13.5 -38q0 -39 -36 -71t-94 -46q40 -30 40 -58q0 -37 -44.5 -72.5t-117.5 -36.5q-58 -1 -114 26.5 t-100 78.5q-19 23 7 32q12 4 30 4q44 0 79 -25q71 -55 124 -55q18 0 29 8t11 20q0 17 -19.5 33.5t-56.5 38.5q-36 21 -56 35.5t-40 39t-20 49.5q0 41 36.5 83.5t97.5 64.5q-14 23 -14 47q0 64 60.5 129t149.5 98q40 15 72 15q46 0 76 -35q31 -42 31 -72q0 -32 -31 -74 q-25 -32 -67 -108q-15 -27 -39 -4q-24 24 -24 54q0 40 50 107q35 51 29 61q-2 5 -11 5q-35 0 -78 -17.5t-80 -59.5t-37 -97q0 -23 19 -44t55 -49z"></glyph><glyph glyph-name="dieresis" unicode="¨" d="M123 419q-15 8 -20 23t3 32q9 18 26.5 27.5t32.5 2.5q33 -15 17 -54q-9 -19 -26.5 -28.5t-32.5 -2.5zM17 418q-14 6 -19.5 22t1.5 33q9 19 25.5 27.5t32.5 1.5q14 -6 19.5 -21t-2.5 -33q-8 -17 -25 -26t-32 -4z"></glyph><glyph glyph-name="copyright" unicode="©" d="M497 612q42 -14 66.5 -57t24.5 -93q0 -67 -35 -139q-37 -75 -101.5 -117.5t-136.5 -39.5q-61 2 -95 35t-34 84q0 54 35 109q39 62 88.5 99t88.5 37q20 0 43.5 -18.5t32.5 -39.5q14 -31 -22 -99q-7 -13 -17 -35q-5 -13 -11.5 -15.5t-21.5 4.5q-29 13 -29 47q0 17 8 34 q26 49 26 63q0 5 -4 5q-13 0 -41.5 -31.5t-56.5 -78.5q-32 -55 -32 -101q0 -25 10.5 -40.5t29.5 -16.5q44 -2 87.5 36t75.5 98q37 70 37 144q0 42 -27 72t-60 30q-46 0 -108.5 -41.5t-109.5 -105.5q-57 -91 -57 -180q0 -43 14 -76.5t39 -48.5q29 -17 64 -17q55 0 94 25 q29 20 29 -10q0 -20 -33 -41.5t-79 -21.5q-55 0 -102 28q-100 60 -100 173q0 72 33 142.5t82.5 120.5t106 81t103.5 31q62 0 95 -35z"></glyph><glyph glyph-name="ordfeminine" unicode="ª" d="M311 581q16 -11 28.5 -34.5t5.5 -50.5q10 1 13.5 -7.5t-1.5 -14.5t-18 -9q-15 -55 -56.5 -101.5t-87.5 -46.5q-45 0 -74 37q-24 32 -24 71q0 44 28 90q22 38 58.5 67t71.5 29q33 0 56 -30zM266 554q-11 -33 7 -51q13 32 13 53q0 14 -7.5 13t-12.5 -15zM182 364 q16 0 61 77q11 19 18 39q-25 28 -33 45q-15 -18 -26 -41q-15 -28 -23 -56.5t-7 -46t10 -17.5z"></glyph><glyph glyph-name="guillemotleft" unicode="«" d="M325 384q13 -27 -13 -63q-24 -38 -78 -80q22 -53 22 -86q0 -29 -20 -44q-25 -20 -35 10q-25 76 -46 115q-12 24 15 43q71 51 118 109q6 9 13.5 11.5t13.5 -1.5t10 -14zM192 378q12 -26 -15 -64q-23 -31 -61 -60q25 -60 28 -74q12 -43 -11 -66q-10 -12 -21 -11t-16 17 q-20 59 -57 123q-17 30 14 51q56 39 103 88q23 23 36 -4z"></glyph><glyph glyph-name="logicalnot" unicode="¬" d="M258 257q-18 -1 -66.5 -5.5t-65.5 -4.5q-61 0 -74 55q-2 8 4.5 14t16.5 6q31 -1 106.5 4t92.5 5q48 0 70 -29q21 -31 4 -59q-30 -48 -48 -96q-12 -28 -37 -8q-27 21 -27 47q0 23 24 71z"></glyph><glyph glyph-name="hyphensoft" unicode="­" d="M258 205q-26 0 -74 -5t-68 -4q-67 3 -81 57q-2 8 4.5 14t17.5 6q39 0 94.5 4t75.5 4q71 0 84 -56q2 -10 -3 -16t-19 -5q-11 1 -31 1z"></glyph><glyph glyph-name="registered" unicode="®" d="M591 441q0 -61 -25 -119q-27 -66 -74.5 -101.5t-98.5 -35.5q-94 0 -130 94q-28 -54 -41 -81q-6 -12 -16 -13t-18 10q-15 20 -15 41q0 19 12 50q22 60 96 183q-9 7 -15 18q-5 8 2 15.5t18 10.5q16 4 49 17q46 18 73 19t50.5 -13t33.5 -43q7 -20 7 -36q0 -31 -27 -73 q-19 -23 -56.5 -45.5t-75.5 -35.5q9 -36 24.5 -55.5t31.5 -20.5q20 -1 45 25t51 83q27 60 27 118q0 45 -15.5 78t-42.5 44q-17 8 -39 8q-50 0 -110.5 -38t-110.5 -107q-64 -90 -64 -184q0 -90 51 -115q22 -12 51 -12q61 0 109 41q32 29 32 -7q0 -35 -44 -63q-34 -19 -80 -19 q-47 0 -79 15q-113 50 -113 180q0 75 36.5 146.5t89.5 118t110 75t99 28.5q58 0 94 -34q47 -19 72.5 -66t25.5 -101zM313 370q52 18 90 49t38 52q0 9 -8 9q-12 0 -61 -17q-51 -79 -59 -93z"></glyph><glyph glyph-name="macron" unicode="¯" d="M108 426q-50 -4 -62 -4q-51 0 -56 42q-2 10 2.5 14.5t16.5 3.5q7 -1 86 3q56 4 77 4q50 0 56 -43q2 -10 -3.5 -15t-19.5 -1q-18 5 -97 -4z"></glyph><glyph glyph-name="degree" unicode="°" d="M147 540q18 35 47 54.5t62 19.5q40 0 62 -31q26 -37 24 -78q-2 -50 -34.5 -97t-77.5 -56q-54 -10 -87 37q-20 27 -20 63q0 42 24 88zM247 454q42 81 26 103q-4 5 -14 -2t-22.5 -21.5t-22.5 -31.5q-16 -28 -22.5 -58.5t1.5 -39.5q5 -3 13 0t19.5 16.5t21.5 33.5z"></glyph><glyph glyph-name="plusminus" unicode="±" d="M136 145q-25 17 -25 46q0 17 12 44q-60 5 -72 57q-2 12 3 17t21 4q27 -2 87 2l52 93q16 29 40 2q17 -19 17 -45q0 -24 -10 -45q62 -5 67 -58q1 -8 -5.5 -13.5t-18.5 -5.5q-11 1 -34 1q-34 0 -51 -2q-29 -48 -47 -89q-5 -10 -14.5 -13t-21.5 5zM189 58q-25 0 -65 -4.5 t-59 -4.5q-70 1 -82 53q-2 8 4.5 14.5t16.5 6.5q27 -1 83 3.5t76 4.5q39 0 56.5 -13.5t26.5 -39.5q3 -9 -3.5 -15.5t-18.5 -6.5q-22 2 -35 2z"></glyph><glyph glyph-name="twosuperior" unicode="²" d="M284 558q-8 0 -38 -51q-23 -37 -64 -37q-16 0 -25 7.5t-5 16.5q20 51 68 92q28 22 60 22q26 0 48 -17q28 -24 28 -56q0 -28 -15 -55q-18 -34 -63 -77t-101 -78q9 1 26 1q47 0 60 -38q5 -16 -15 -16q-67 0 -138 -20q-25 -8 -37 6q-16 14 -21 34q-3 20 14 29 q99 56 161 121.5t62 107.5q0 8 -5 8z"></glyph><glyph glyph-name="threesuperior" unicode="³" d="M321 589q24 -24 24 -49q0 -27 -22 -54.5t-59 -44.5q30 -15 30 -50q0 -41 -41 -92q-44 -53 -111 -53q-30 0 -51 13q-36 23 -36 62q0 13 7 30q17 43 64 43q14 0 18.5 -6t-1.5 -13q-19 -26 -24 -49.5t6 -28.5q9 -5 27.5 5t39.5 37q25 34 25 63q0 14 -5 14q-1 0 -4 -1 t-8 -1.5t-11 -0.5q-29 0 -39 21q-8 14 12 20q51 17 84 45.5t33 53.5q0 8 -4 8q-7 0 -32 -34q-17 -21 -42 -27.5t-39 1.5q-16 7 -9 21q29 54 77 77q18 9 39 9q33 0 52 -19z"></glyph><glyph glyph-name="acute" unicode="´" d="M133 517q25 0 45 -11q22 -14 -1 -25l-38 -19q-55 -29 -77 -35q-36 -11 -59 0q-21 11 0 25q56 40 95 57q17 8 35 8z"></glyph><glyph glyph-name="mu" unicode="µ" d="M435 90q-23 -44 -69 -76t-92 -32q-43 0 -66.5 19.5t-25.5 54.5q-69 -75 -130 -69q-16 1 -36 10q-47 -92 -96 -206q-6 -14 -15.5 -15t-19.5 12q-17 21 -17 50q0 25 15 62q36 87 112 239.5t134 247.5q9 14 21 13.5t22 -13.5q14 -18 14 -46q0 -37 -33 -91 q-29 -48 -42.5 -70.5t-29 -61.5t-15.5 -66q0 -22 12 -22q37 0 131 148q33 53 70.5 121.5t50.5 87.5q21 32 42 7q16 -20 16 -52q0 -33 -16 -65q-5 -10 -40.5 -69.5t-52.5 -97.5q-15 -32 -15 -58q0 -14 4.5 -21.5t13.5 -6.5q23 1 58.5 40.5t65.5 91.5q8 13 19.5 13.5 t17.5 -13.5q11 -26 -8 -66z"></glyph><glyph glyph-name="paragraph" unicode="¶" d="M614 542h-45q-6 -30 -35 -79q-160 -268 -236 -456q-12 -29 -34 -4q-17 21 -17 48q0 23 9 55q20 68 86 197.5t135 233.5q-7 -1 -26 -5q-196 -329 -277 -531q-13 -33 -36 -6q-16 20 -16 51q0 57 64 189q-80 18 -92 100q-10 88 68 164q60 58 162 91t216 31q37 -1 61.5 -18 t33.5 -39q10 -22 -21 -22z"></glyph><glyph glyph-name="middot" unicode="·" d="M67 195q-18 7 -24 27.5t3 39.5q11 23 31 34t39 4q18 -7 23.5 -26t-3.5 -41t-30 -33.5t-39 -4.5z"></glyph><glyph glyph-name="cedilla" unicode="¸" d="M78 -11l-6 -13q29 -5 39 -23q15 -29 1 -51q-20 -33 -62 -33q-34 0 -56 28q-12 18 16 18q18 0 32.5 3t21.5 8t5 10q-1 3 -20 0q-22 -3 -33 10q-15 18 -6 34l7 12q5 8 13 8h41q12 0 7 -11z"></glyph><glyph glyph-name="onesuperior" unicode="¹" d="M65 294q0 17 7 35q20 59 95 185q-17 0 -23 4.5t-4 9.5t8 10q16 14 59 59q16 16 30 1q24 -24 24 -51q0 -19 -11 -39q-5 -10 -17.5 -31.5t-17.5 -29.5q-66 -112 -100 -195q-7 -20 -28 -5q-22 17 -22 47z"></glyph><glyph glyph-name="ordmasculine" unicode="º" d="M131 492q40 59 86.5 88.5t79.5 29.5q34 0 46 -26q7 13 14 21q16 19 31 0q19 -23 19 -53q0 -25 -35 -81q-61 -96 -53 -116q1 -3 4 -3q14 0 34 24.5t37 61.5q5 12 13.5 12.5t14.5 -9.5q16 -26 3 -53q-14 -30 -47 -51.5t-66 -21.5q-44 0 -60 40q-39 -37 -78 -37 q-34 0 -55 21.5t-21 56.5q0 44 33 96zM217 462q-47 -73 -42 -98q2 -6 7 -6q33 0 88 94q52 90 43 108q-2 2 -4 2q-13 0 -39 -28t-53 -72z"></glyph><glyph glyph-name="guillemotright" unicode="»" d="M189 131q-10 25 16 64q22 28 61 60q-16 31 -28 74q-9 44 10 65q27 27 38 -6q20 -59 57 -123q8 -9 4.5 -24.5t-18.5 -26.5q-55 -36 -103 -88q-10 -10 -20.5 -9t-16.5 14zM56 124q-11 25 14 64q31 44 78 79q-21 46 -21 80q0 29 21 44q26 16 35 -10q15 -53 44 -109 q13 -24 -15 -43q-64 -46 -120 -109q-24 -27 -36 4z"></glyph><glyph glyph-name="onequarter" unicode="¼" d="M71 100q40 64 174 222.5t233 262.5q21 22 32 22t14 -21q6 -45 -54 -114q-15 -17 -88 -102t-113.5 -132.5t-96.5 -117t-90 -116.5q-23 -32 -35 3t24 93zM90 294q0 17 7 35q20 59 95 185q-17 0 -23 4.5t-4 9.5t8 10q16 14 59 59q16 16 30 1q24 -24 24 -51q0 -19 -11 -39 q-5 -10 -17.5 -31.5t-17.5 -29.5q-66 -112 -100 -195q-7 -20 -28 -5q-22 17 -22 47zM401 169q29 59 48 86q-69 -52 -117 -97q35 8 69 11zM399 -5q-3 -9 -11.5 -10.5t-17.5 5.5q-21 18 -21 45q0 26 22 74q-11 -2 -34 -6.5t-36 -6.5q-25 -6 -36 10q-7 9 -15 26q-4 10 4 23 q32 38 101.5 95.5t123.5 91.5q27 16 41 -3q11 -14 19 -38q9 -24 -6 -45q-46 -77 -63 -109q9 -10 11 -19q1 -10 -4.5 -12.5t-22.5 -0.5q-36 -70 -55 -120z"></glyph><glyph glyph-name="onehalf" unicode="½" d="M71 100q40 64 174 222.5t233 262.5q21 22 32 22t14 -21q6 -45 -54 -114q-15 -17 -88 -102t-113.5 -132.5t-96.5 -117t-90 -116.5q-23 -32 -35 3t24 93zM90 294q0 17 7 35q20 59 95 185q-17 0 -23 4.5t-4 9.5t8 10q16 14 59 59q16 16 30 1q24 -24 24 -51q0 -19 -11 -39 q-5 -10 -17.5 -31.5t-17.5 -29.5q-66 -112 -100 -195q-7 -20 -28 -5q-22 17 -22 47zM461 298q-8 0 -38 -51q-23 -37 -64 -37q-16 0 -25 7.5t-5 16.5q20 51 68 92q27 22 60 22q26 0 48 -17q28 -24 28 -56q0 -28 -15 -55q-18 -34 -63 -77t-101 -78q9 1 26 1q47 0 60 -38 q5 -16 -15 -16q-67 0 -138 -20q-25 -8 -37 6q-16 14 -21 34q-3 20 14 29q99 56 161 121.5t62 107.5q0 8 -5 8z"></glyph><glyph glyph-name="threequarters" unicode="¾" d="M150 100q40 64 174 222.5t233 262.5q21 22 32 22t14 -21q6 -45 -54 -114q-15 -17 -88 -102t-113.5 -132.5t-96.5 -117t-90 -116.5q-23 -32 -35 3t24 93zM327 589q24 -24 24 -49q0 -27 -22 -54.5t-59 -44.5q30 -15 30 -50q0 -41 -41 -92q-44 -53 -111 -53q-30 0 -51 13 q-36 23 -36 62q0 13 7 30q17 43 64 43q14 0 18.5 -6t-1.5 -13q-19 -26 -24 -49.5t6 -28.5q9 -5 27.5 5t39.5 37q25 34 25 63q0 14 -5 14q-1 0 -4 -1t-8 -1.5t-11 -0.5q-29 0 -39 21q-8 14 12 20q51 17 84 45.5t33 53.5q0 8 -4 8q-7 0 -32 -34q-17 -21 -42 -27.5t-39 1.5 q-16 7 -9 21q29 54 77 77q18 9 39 9q33 0 52 -19zM480 169q29 59 48 86q-69 -52 -117 -97q35 8 69 11zM478 -5q-3 -9 -11.5 -10.5t-17.5 5.5q-21 18 -21 45q0 26 22 74q-11 -2 -34 -6.5t-36 -6.5q-25 -6 -36 10q-7 9 -15 26q-4 10 4 23q32 38 101.5 95.5t123.5 91.5 q27 16 41 -3q11 -14 19 -38q9 -24 -6 -45q-46 -77 -63 -109q9 -10 11 -19q1 -10 -4.5 -12.5t-22.5 -0.5q-36 -70 -55 -120z"></glyph><glyph glyph-name="questiondown" unicode="¿" d="M401 532q-17 -17 -39.5 -9.5t-33.5 33.5q-7 17 -7 32q0 22 15 37q13 15 35 11.5t36 -25.5q11 -20 11 -37q0 -23 -17 -42zM312 173q0 -40 -28 -86q-29 -47 -73.5 -75t-89.5 -28q-39 0 -71 21q-57 39 -57 108q0 45 23 91q25 51 72 90.5t114 76.5q85 51 107 139q9 33 37 5 q20 -20 20 -51q0 -20 -11 -46q-28 -60 -129 -118q-95 -57 -137 -147q-18 -38 -18 -74q0 -30 12 -37q33 -17 85.5 35t93.5 137q17 33 38 3q12 -21 12 -44z"></glyph><glyph glyph-name="Agrave" unicode="À" d="M357 684q-18 11 1 24q13 9 41 9q22 0 40 -9q46 -24 88 -60q18 -15 -4 -24q-28 -12 -59 1q-41 18 -107 59zM308 226q21 148 57 255q-109 -132 -199 -271q40 4 59 7q74 9 83 9zM337 -9q-41 20 -42 95q0 41 3 67l-70 -7q-80 -8 -107 -7q-14 -25 -38 -72.5t-34 -65.5 q-9 -15 -19.5 -14.5t-16.5 11.5q-12 24 -12 37q0 29 16 68q12 30 24 53q-21 15 -30 33q-6 14 -1.5 19t23.5 2q20 -3 36 -4q62 108 153 229t165 184q31 25 52 -3q13 -17 23 -41q8 -19 8 -35q0 -21 -8 -41q-44 -138 -70 -281q31 -14 44 -52q4 -12 -1 -15.5t-19 -1.5l-35 6 q-10 -87 -13 -150q0 -28 -31 -14z"></glyph><glyph glyph-name="Aacute" unicode="Á" d="M483 736q25 0 45 -11q22 -14 -1 -25l-38 -19q-55 -29 -77 -35q-36 -11 -59 0q-21 11 0 25q56 40 95 57q17 8 35 8zM308 226q21 148 57 255q-109 -132 -199 -271q40 4 59 7q74 9 83 9zM337 -9q-41 20 -42 95q0 41 3 67l-70 -7q-80 -8 -107 -7q-14 -25 -38 -72.5t-34 -65.5 q-9 -15 -19.5 -14.5t-16.5 11.5q-12 24 -12 37q0 29 16 68q12 30 24 53q-21 15 -30 33q-6 14 -1.5 19t23.5 2q20 -3 36 -4q62 108 153 229t165 184q31 25 52 -3q13 -17 23 -41q8 -19 8 -35q0 -21 -8 -41q-44 -138 -70 -281q31 -14 44 -52q4 -12 -1 -15.5t-19 -1.5l-35 6 q-10 -87 -13 -150q0 -28 -31 -14z"></glyph><glyph glyph-name="Acircumflex" unicode="Â" d="M442 672l-50 -29q-26 -15 -57 -10q-13 3 -14.5 10.5t8.5 14.5q98 71 115 81q7 5 16 5q23 0 32 -17q5 -9 19.5 -34.5t19.5 -34.5q9 -17 -12 -23q-34 -9 -62 19q-9 9 -15 18zM308 226q21 148 57 255q-109 -132 -199 -271q40 4 59 7q74 9 83 9zM337 -9q-41 20 -42 95 q0 41 3 67l-70 -7q-80 -8 -107 -7q-14 -25 -38 -72.5t-34 -65.5q-9 -15 -19.5 -14.5t-16.5 11.5q-12 24 -12 37q0 29 16 68q12 30 24 53q-21 15 -30 33q-6 14 -1.5 19t23.5 2q20 -3 36 -4q62 108 153 229t165 184q31 25 52 -3q13 -17 23 -41q8 -19 8 -35q0 -21 -8 -41 q-44 -138 -70 -281q31 -14 44 -52q4 -12 -1 -15.5t-19 -1.5l-35 6q-10 -87 -13 -150q0 -28 -31 -14z"></glyph><glyph glyph-name="Atilde" unicode="Ã" d="M333 665q-14 -4 -19.5 0.5t-1.5 16.5q6 14 25.5 26.5t44.5 12.5q24 0 58 -14q41 -15 56 -15q12 0 24 4q18 5 24.5 0t-1.5 -20q-19 -37 -71 -37q-22 0 -69 15q-36 14 -54 14q-9 0 -16 -3zM308 226q21 148 57 255q-109 -132 -199 -271q40 4 59 7q74 9 83 9zM337 -9 q-41 20 -42 95q0 41 3 67l-70 -7q-80 -8 -107 -7q-14 -25 -38 -72.5t-34 -65.5q-9 -15 -19.5 -14.5t-16.5 11.5q-12 24 -12 37q0 29 16 68q12 30 24 53q-21 15 -30 33q-6 14 -1.5 19t23.5 2q20 -3 36 -4q62 108 153 229t165 184q31 25 52 -3q13 -17 23 -41q8 -19 8 -35 q0 -21 -8 -41q-44 -138 -70 -281q31 -14 44 -52q4 -12 -1 -15.5t-19 -1.5l-35 6q-10 -87 -13 -150q0 -28 -31 -14z"></glyph><glyph glyph-name="Adieresis" unicode="Ä" d="M364 643q-16 5 -22 21.5t3 33.5q9 19 26 28.5t33 2.5q34 -16 16 -54q-8 -18 -24 -27.5t-32 -4.5zM476 646q-14 5 -20 20.5t1 32.5q7 18 24.5 27t32.5 4q14 -5 20 -21t-1 -33q-7 -18 -24.5 -26.5t-32.5 -3.5zM308 226q21 148 57 255q-109 -132 -199 -271q40 4 59 7 q74 9 83 9zM337 -9q-41 20 -42 95q0 41 3 67l-70 -7q-80 -8 -107 -7q-14 -25 -38 -72.5t-34 -65.5q-9 -15 -19.5 -14.5t-16.5 11.5q-12 24 -12 37q0 29 16 68q12 30 24 53q-21 15 -30 33q-6 14 -1.5 19t23.5 2q20 -3 36 -4q62 108 153 229t165 184q31 25 52 -3 q13 -17 23 -41q8 -19 8 -35q0 -21 -8 -41q-44 -138 -70 -281q31 -14 44 -52q4 -12 -1 -15.5t-19 -1.5l-35 6q-10 -87 -13 -150q0 -28 -31 -14z"></glyph><glyph glyph-name="Aring" unicode="Å" d="M467 633q11 20 11 36q0 5 -3 5q-10 0 -19 -19q-7 -17 -7 -29q0 -11 3 -11q6 0 15 18zM308 226q21 148 57 255q-109 -132 -199 -271q40 4 59 7q74 9 83 9zM49 1q-9 -15 -19.5 -14.5t-16.5 11.5q-12 24 -12 37q0 29 16 68q12 30 24 53q-21 15 -30 33q-6 14 -1.5 19t23.5 2 q20 -3 36 -4q62 108 153 229t165 184q7 5 14 9q-1 5 -1 14q0 17 8 35q18 35 56 35q23 0 41.5 -20t18.5 -40q0 -23 -12 -44q-19 -32 -50 -32v-1q8 -19 8 -35q0 -21 -8 -41q-44 -138 -70 -281q31 -14 44 -52q4 -12 -1 -15.5t-19 -1.5l-35 6q-10 -87 -13 -150q0 -28 -31 -14 q-41 20 -42 95q0 41 3 67l-70 -7q-80 -8 -107 -7q-14 -25 -38 -72.5t-34 -65.5z"></glyph><glyph glyph-name="AE" unicode="Æ" d="M212 232q21 5 58.5 16.5t56.5 16.5q29 56 121 212q-118 -108 -236 -245zM36 -6q-14 -23 -31 1q-11 15 -11 31q0 34 24 81q7 17 27 44q-20 11 -28 26q-6 12 -1.5 18t21.5 6q18 -1 44 2q75 99 176 205.5t179 159.5q28 20 63 28q108 23 200 25q75 1 97 -53q4 -11 -1 -17 t-22 -5q-71 3 -199 -26q-46 -73 -131 -229q20 4 60 6q74 3 92 -54q4 -13 -0.5 -18t-21.5 -5q-73 1 -180 -24q-43 -88 -57 -122q67 18 132 22q78 6 99 -51q9 -22 -20 -22q-73 0 -209 -37q-25 -7 -38.5 -4.5t-23.5 16.5q-20 28 -24 37q-14 27 0 62q19 50 30 73 q-85 -22 -145 -30q-46 -58 -101 -146z"></glyph><glyph glyph-name="Ccedilla" unicode="Ç" d="M199 -98q-19 -33 -62 -33q-34 0 -56 28q-12 18 16 18q18 0 32.5 3t21.5 8t5 10q-1 3 -20 0q-22 -3 -33 10q-15 18 -6 34l19 31l-2 1q-37 20 -63 65.5t-27 104.5q-2 94 48 189t114.5 156t125.5 89q44 17 79 17q39 0 65 -21q60 -53 60 -108q0 -30 -14 -58q-26 -52 -38 -90 q-4 -14 -14 -18.5t-25 3.5q-34 22 -34 64q0 17 6 37q3 10 17 46q27 66 14 80q-12 13 -55 -8t-99 -72.5t-95 -114.5q-63 -102 -63 -213q0 -60 22 -92t52 -32q42 0 91.5 46.5t92.5 128.5q6 12 19 12.5t21 -15.5q7 -15 7 -33q0 -39 -28 -78.5t-62 -64.5q-58 -41 -129 -41 q-19 0 -35 3l-8 -18q29 -5 39 -23q15 -29 1 -51z"></glyph><glyph glyph-name="Egrave" unicode="È" d="M290 704q-18 11 1 24q13 9 41 9q22 0 40 -9q46 -24 88 -60q18 -15 -4 -24q-28 -12 -59 1q-41 18 -107 59zM-24 38q-10 16 4 54q33 87 97 208t127 220q-32 21 -40 50q-2 10 4.5 15t18.5 5q72 0 156 14q68 10 88 10q64 1 84 -52q3 -9 -2.5 -14.5t-19.5 -5.5q-52 0 -151 -19 q-25 -5 -40 -7q-34 -51 -126 -218q18 3 52 5q75 3 92 -48q9 -23 -20 -23q-73 0 -173 -26q-45 -86 -69 -139q75 20 136 24q76 3 94 -47q8 -22 -19 -22q-64 1 -215 -40q-37 -11 -53 12q-4 5 -12 20t-13 24z"></glyph><glyph glyph-name="Eacute" unicode="É" d="M426 736q25 0 45 -11q22 -14 -1 -25l-38 -19q-55 -29 -77 -35q-36 -11 -59 0q-21 11 0 25q56 40 95 57q17 8 35 8zM-24 38q-10 16 4 54q33 87 97 208t127 220q-32 21 -40 50q-2 10 4.5 15t18.5 5q72 0 156 14q68 10 88 10q64 1 84 -52q3 -9 -2.5 -14.5t-19.5 -5.5 q-52 0 -151 -19q-25 -5 -40 -7q-34 -51 -126 -218q18 3 52 5q75 3 92 -48q9 -23 -20 -23q-73 0 -173 -26q-45 -86 -69 -139q75 20 136 24q76 3 94 -47q8 -22 -19 -22q-64 1 -215 -40q-37 -11 -53 12q-4 5 -12 20t-13 24z"></glyph><glyph glyph-name="Ecircumflex" unicode="Ê" d="M395 672l-50 -29q-26 -15 -57 -10q-13 3 -14.5 10.5t8.5 14.5q98 71 115 81q7 5 16 5q23 0 32 -17q5 -9 19.5 -34.5t19.5 -34.5q9 -17 -12 -23q-34 -9 -62 19q-9 9 -15 18zM-24 38q-10 16 4 54q33 87 97 208t127 220q-32 21 -40 50q-2 10 4.5 15t18.5 5q72 0 156 14 q68 10 88 10q64 1 84 -52q3 -9 -2.5 -14.5t-19.5 -5.5q-52 0 -151 -19q-25 -5 -40 -7q-34 -51 -126 -218q18 3 52 5q75 3 92 -48q9 -23 -20 -23q-73 0 -173 -26q-45 -86 -69 -139q75 20 136 24q76 3 94 -47q8 -22 -19 -22q-64 1 -215 -40q-37 -11 -53 12q-4 5 -12 20t-13 24 z"></glyph><glyph glyph-name="Edieresis" unicode="Ë" d="M307 643q-16 5 -22 21.5t3 33.5q9 19 26 28.5t33 2.5q34 -16 16 -54q-8 -18 -24 -27.5t-32 -4.5zM419 646q-14 5 -20 20.5t1 32.5q7 18 24.5 27t32.5 4q14 -5 20 -21t-1 -33q-7 -18 -24.5 -26.5t-32.5 -3.5zM-24 38q-10 16 4 54q33 87 97 208t127 220q-32 21 -40 50 q-2 10 4.5 15t18.5 5q72 0 156 14q68 10 88 10q64 1 84 -52q3 -9 -2.5 -14.5t-19.5 -5.5q-52 0 -151 -19q-25 -5 -40 -7q-34 -51 -126 -218q18 3 52 5q75 3 92 -48q9 -23 -20 -23q-73 0 -173 -26q-45 -86 -69 -139q75 20 136 24q76 3 94 -47q8 -22 -19 -22q-64 1 -215 -40 q-37 -11 -53 12q-4 5 -12 20t-13 24z"></glyph><glyph glyph-name="Igrave" unicode="Ì" d="M227 704q-18 11 1 24q14 9 41 9q22 0 40 -9q46 -24 88 -60q18 -15 -4 -24q-28 -12 -59 1q-41 18 -107 59zM-11 111q38 100 123 258.5t145 244.5q24 34 42 -1q9 -18 9 -40q0 -47 -38 -116q-175 -310 -241 -457q-12 -29 -34 -4q-18 18 -18 53q0 26 12 62z"></glyph><glyph glyph-name="Iacute" unicode="Í" d="M353 736q25 0 45 -11q22 -14 -1 -25l-38 -19q-55 -29 -77 -35q-36 -11 -59 0q-21 11 0 25q56 40 95 57q17 8 35 8zM-11 111q38 100 123 258.5t145 244.5q24 34 42 -1q9 -18 9 -40q0 -47 -38 -116q-175 -310 -241 -457q-12 -29 -34 -4q-18 18 -18 53q0 26 12 62z"></glyph><glyph glyph-name="Icircumflex" unicode="Î" d="M312 672l-50 -29q-26 -15 -57 -10q-13 3 -14.5 10.5t8.5 14.5q98 71 115 81q7 5 16 5q23 0 32 -17q5 -9 19.5 -34.5t19.5 -34.5q9 -17 -12 -23q-34 -9 -62 19q-9 9 -15 18zM-11 111q38 100 123 258.5t145 244.5q24 34 42 -1q9 -18 9 -40q0 -47 -38 -116 q-175 -310 -241 -457q-12 -29 -34 -4q-18 18 -18 53q0 26 12 62z"></glyph><glyph glyph-name="Idieresis" unicode="Ï" d="M234 643q-16 5 -22 21.5t3 33.5q9 19 26 28.5t33 2.5q34 -16 16 -54q-8 -18 -24 -27.5t-32 -4.5zM346 646q-14 5 -20 20.5t1 32.5q7 18 24.5 27t32.5 4q14 -5 20 -21t-1 -33q-7 -18 -24.5 -26.5t-32.5 -3.5zM-11 111q38 100 123 258.5t145 244.5q24 34 42 -1q9 -18 9 -40 q0 -47 -38 -116q-175 -310 -241 -457q-12 -29 -34 -4q-18 18 -18 53q0 26 12 62z"></glyph><glyph glyph-name="Eth" unicode="Ð" d="M106 -14q-23 0 -39.5 11.5t-36.5 37.5q-26 35 -26 54q0 20 14 64q15 46 52 122q-55 8 -67 56q-2 8 4.5 14.5t17.5 6.5q41 -2 87 3q38 69 83 139q-45 6 -60 44q-4 11 -0.5 17.5t18.5 8.5q37 5 93 30q48 21 91 29q95 15 158 -89q23 -38 23 -100q0 -81 -48 -169t-136 -162.5 t-195 -110.5q-18 -6 -33 -6zM83 65q0 -13 15 -7q104 40 185.5 117t120 154.5t38.5 140.5q0 36 -12 55q-14 22 -37 22q-14 0 -36 -7.5t-48.5 -19.5t-35.5 -15q5 -44 -28 -103q-18 -30 -26 -44q49 -8 60 -54q2 -11 -3 -16.5t-19 -4.5q-36 4 -82 -2q-69 -122 -87 -187 q-5 -18 -5 -29z"></glyph><glyph glyph-name="Ntilde" unicode="Ñ" d="M351 665q-14 -4 -19.5 0.5t-1.5 16.5q6 14 25.5 26.5t44.5 12.5q24 0 58 -14q41 -15 56 -15q12 0 24 4q18 5 24.5 0t-1.5 -20q-19 -37 -71 -37q-22 0 -69 15q-36 14 -54 14q-9 0 -16 -3zM211 82q-3 44 -3 73q0 103 13 226q-127 -218 -186 -383q-3 -10 -9 -14t-13 -2 t-14 10q-19 25 -19 56q0 26 13 60q36 94 114 243.5t141 254.5q17 29 40 10q44 -32 44 -79q0 -18 -5 -48q-18 -105 -30 -300q112 235 231 421q20 28 38 -3q9 -18 9 -39q0 -49 -37 -109q-43 -71 -119 -217t-121 -245q-11 -21 -34 -9q-48 24 -53 94z"></glyph><glyph glyph-name="Ograve" unicode="Ò" d="M385 704q-18 11 1 24q14 9 41 9q22 0 40 -9q46 -24 88 -60q18 -15 -4 -24q-28 -12 -59 1q-41 18 -107 59zM393 628q53 0 81 -30q91 -41 91 -161q0 -112 -64 -230q-55 -101 -129 -164t-155 -63q-34 0 -67 12q-119 44 -119 190q0 75 31 150.5t77.5 132t98 97t95.5 56.5 q29 10 60 10zM184 35q48 0 111 56t115 150q68 126 68 234q0 76 -31 88q-37 13 -113 -39.5t-140 -149.5q-73 -113 -73 -230q0 -52 17 -80.5t46 -28.5z"></glyph><glyph glyph-name="Oacute" unicode="Ó" d="M560 736q25 0 45 -11q22 -14 -1 -25l-38 -19q-55 -29 -77 -35q-36 -11 -59 0q-21 11 0 25q56 40 95 57q17 8 35 8zM393 628q53 0 81 -30q91 -41 91 -161q0 -112 -64 -230q-55 -101 -129 -164t-155 -63q-34 0 -67 12q-119 44 -119 190q0 75 31 150.5t77.5 132t98 97 t95.5 56.5q29 10 60 10zM184 35q48 0 111 56t115 150q68 126 68 234q0 76 -31 88q-37 13 -113 -39.5t-140 -149.5q-73 -113 -73 -230q0 -52 17 -80.5t46 -28.5z"></glyph><glyph glyph-name="Ocircumflex" unicode="Ô" d="M489 672l-50 -29q-26 -15 -57 -10q-13 3 -14.5 10.5t8.5 14.5q98 71 115 81q7 5 16 5q23 0 32 -17q5 -9 19.5 -34.5t19.5 -34.5q9 -17 -12 -23q-34 -9 -62 19q-9 9 -15 18zM393 628q53 0 81 -30q91 -41 91 -161q0 -112 -64 -230q-55 -101 -129 -164t-155 -63 q-34 0 -67 12q-119 44 -119 190q0 75 31 150.5t77.5 132t98 97t95.5 56.5q29 10 60 10zM184 35q48 0 111 56t115 150q68 126 68 234q0 76 -31 88q-37 13 -113 -39.5t-140 -149.5q-73 -113 -73 -230q0 -52 17 -80.5t46 -28.5z"></glyph><glyph glyph-name="Otilde" unicode="Õ" d="M400 665q-14 -4 -19.5 0.5t-1.5 16.5q6 14 25.5 26.5t44.5 12.5q24 0 58 -14q41 -15 56 -15q12 0 24 4q18 5 24.5 0t-1.5 -20q-19 -37 -71 -37q-22 0 -69 15q-36 14 -54 14q-8 0 -16 -3zM393 628q53 0 81 -30q91 -41 91 -161q0 -112 -64 -230q-55 -101 -129 -164 t-155 -63q-34 0 -67 12q-119 44 -119 190q0 75 31 150.5t77.5 132t98 97t95.5 56.5q29 10 60 10zM184 35q48 0 111 56t115 150q68 126 68 234q0 76 -31 88q-37 13 -113 -39.5t-140 -149.5q-73 -113 -73 -230q0 -52 17 -80.5t46 -28.5z"></glyph><glyph glyph-name="Odieresis" unicode="Ö" d="M411 643q-16 5 -22 21.5t3 33.5q9 19 26 28.5t33 2.5q34 -16 16 -54q-8 -18 -24 -27.5t-32 -4.5zM523 646q-14 5 -20 20.5t1 32.5q7 18 24.5 27t32.5 4q14 -5 20 -21t-1 -33q-7 -18 -24.5 -26.5t-32.5 -3.5zM393 628q53 0 81 -30q91 -41 91 -161q0 -112 -64 -230 q-55 -101 -129 -164t-155 -63q-34 0 -67 12q-119 44 -119 190q0 75 31 150.5t77.5 132t98 97t95.5 56.5q29 10 60 10zM184 35q48 0 111 56t115 150q68 126 68 234q0 76 -31 88q-37 13 -113 -39.5t-140 -149.5q-73 -113 -73 -230q0 -52 17 -80.5t46 -28.5z"></glyph><glyph glyph-name="multiply" unicode="×" d="M217 271q31 -58 36 -76q6 -23 -7 -36q-15 -15 -32 2q-21 21 -54 72q-51 -35 -88 -69q-23 -21 -34 0q-24 44 35 98q6 5 46 35q-32 56 -39 80q-10 31 24 31q36 0 53 -31l21 -37q60 45 79 64q12 11 21.5 10.5t13.5 -10.5q22 -44 -23 -89q-15 -16 -52 -44z"></glyph><glyph glyph-name="Oslash" unicode="Ø" d="M444 561q-36 14 -111.5 -38.5t-139.5 -149.5q-70 -108 -72 -225q129 174 342 395q-8 14 -19 18zM184 36q47 0 110.5 56.5t112.5 147.5q58 107 68 204q-13 -14 -43 -46q-188 -206 -292 -336q16 -26 44 -26zM556 634q31 26 37 -6q5 -38 -48 -105q17 -37 17 -88 q0 -108 -64 -228q-54 -100 -127.5 -162.5t-154.5 -62.5q-64 0 -110 35q-34 -43 -40 -52q-7 -9 -14 -11.5t-12.5 2t-7.5 13.5q-9 35 30 94q-31 53 -31 118q0 75 31.5 150.5t78 131.5t97 96t94.5 55q30 10 60 10q55 0 85 -32l10 -5t12 -7q31 32 57 54z"></glyph><glyph glyph-name="Ugrave" unicode="Ù" d="M342 704q-18 11 1 24q13 9 41 9q22 0 40 -9q46 -24 88 -60q18 -15 -4 -24q-28 -12 -59 1q-41 18 -107 59zM131 -23q-31 0 -58 11q-81 33 -81 124q0 29 7 60q32 131 230 434q21 30 42 -1q13 -21 13 -45q0 -40 -31 -98q-6 -11 -54.5 -95t-76.5 -142t-40 -105q-7 -32 -7 -47 q0 -47 37 -47t83.5 52.5t92.5 142.5q115 223 217 386q19 31 41 -1q10 -18 10 -41q0 -39 -22 -86q-29 -65 -103 -198.5t-120 -196.5q-78 -107 -180 -107z"></glyph><glyph glyph-name="Uacute" unicode="Ú" d="M478 736q25 0 45 -11q22 -14 -1 -25l-38 -19q-55 -29 -77 -35q-36 -11 -59 0q-21 11 0 25q56 40 95 57q17 8 35 8zM131 -23q-31 0 -58 11q-81 33 -81 124q0 29 7 60q32 131 230 434q21 30 42 -1q13 -21 13 -45q0 -40 -31 -98q-6 -11 -54.5 -95t-76.5 -142t-40 -105 q-7 -32 -7 -47q0 -47 37 -47t83.5 52.5t92.5 142.5q115 223 217 386q19 31 41 -1q10 -18 10 -41q0 -39 -22 -86q-29 -65 -103 -198.5t-120 -196.5q-78 -107 -180 -107z"></glyph><glyph glyph-name="Ucircumflex" unicode="Û" d="M417 672l-50 -29q-26 -15 -57 -10q-13 3 -14.5 10.5t8.5 14.5q98 71 115 81q7 5 16 5q23 0 32 -17q5 -9 19.5 -34.5t19.5 -34.5q9 -17 -12 -23q-34 -9 -62 19q-9 9 -15 18zM131 -23q-31 0 -58 11q-81 33 -81 124q0 29 7 60q32 131 230 434q21 30 42 -1q13 -21 13 -45 q0 -40 -31 -98q-6 -11 -54.5 -95t-76.5 -142t-40 -105q-7 -32 -7 -47q0 -47 37 -47t83.5 52.5t92.5 142.5q115 223 217 386q19 31 41 -1q10 -18 10 -41q0 -39 -22 -86q-29 -65 -103 -198.5t-120 -196.5q-78 -107 -180 -107z"></glyph><glyph glyph-name="Udieresis" unicode="Ü" d="M349 643q-16 5 -22 21.5t3 33.5q9 19 26 28.5t33 2.5q34 -16 16 -54q-8 -18 -24 -27.5t-32 -4.5zM461 646q-14 5 -20 20.5t1 32.5q7 18 24.5 27t32.5 4q14 -5 20 -21t-1 -33q-7 -18 -24.5 -26.5t-32.5 -3.5zM131 -23q-31 0 -58 11q-81 33 -81 124q0 29 7 60 q32 131 230 434q21 30 42 -1q13 -21 13 -45q0 -40 -31 -98q-6 -11 -54.5 -95t-76.5 -142t-40 -105q-7 -32 -7 -47q0 -47 37 -47t83.5 52.5t92.5 142.5q115 223 217 386q19 31 41 -1q10 -18 10 -41q0 -39 -22 -86q-29 -65 -103 -198.5t-120 -196.5q-78 -107 -180 -107z"></glyph><glyph glyph-name="Yacute" unicode="Ý" d="M391 736q25 0 45 -11q22 -14 -1 -25l-38 -19q-55 -29 -77 -35q-36 -11 -59 0q-21 11 0 25q56 40 95 57q17 8 35 8zM181 196q-65 -129 -91 -202q-11 -29 -32 -11q-24 20 -24 61q0 25 7 49q18 55 61 142q4 249 28 364q6 31 31 17q20 -13 33.5 -44.5t12.5 -76.5 q-1 -28 -6.5 -80.5t-7.5 -87.5q132 142 289 285q9 8 16.5 10.5t12.5 -1t7 -11.5q15 -66 -60 -140q-189 -179 -277 -274z"></glyph><glyph glyph-name="Thorn" unicode="Þ" d="M372 454q-35 0 -116 -30q-7 -12 -103 -185q119 11 194 77.5t57 118.5q-7 19 -32 19zM185 493q27 46 80 126q12 17 23.5 16t19.5 -17q8 -13 8 -39t-8 -50q18 4 30 4q93 5 128 -86q10 -27 10 -52q0 -89 -97 -158t-223 -81q-26 -2 -44 4q-60 -119 -78 -160q-13 -28 -34 -4 q-18 20 -18 52q0 28 13 63q47 127 144 302q-29 10 -42 39q-11 24 19 26q19 1 69 15z"></glyph><glyph glyph-name="germandbls" unicode="ß" d="M488 499q0 -50 -39 -102q-43 -57 -121 -90q61 -30 61 -91q0 -66 -68 -143q-76 -84 -153 -84q-59 0 -88 32q-9 10 -4.5 18t20.5 8q37 -1 81.5 21t75.5 58q35 42 51.5 81.5t2.5 54.5q-11 13 -39 7q-24 -5 -40.5 2.5t-33.5 34.5q-13 20 14 29q112 36 168 107t36 111 q-6 13 -22 13q-43 0 -129 -116v1q-48 -66 -116.5 -198t-114.5 -250q-4 -10 -10 -14t-12 -1t-12 11q-17 25 -17 51q0 27 11 61q19 61 71.5 168.5t102.5 182.5q73 108 140 140q40 17 68 17q53 0 87 -40q29 -37 29 -80z"></glyph><glyph glyph-name="agrave" unicode="à" d="M220 483q-18 11 1 24q13 9 41 9q22 0 40 -9q46 -24 88 -60q18 -15 -4 -24q-28 -12 -59 1q-41 18 -107 59zM46 237q56 81 113.5 121.5t99.5 40.5q52 0 67 -44l19 31q9 15 20.5 16.5t20.5 -9.5q14 -17 16 -46t-16 -70q-8 -16 -38.5 -65t-51 -92.5t-20.5 -73.5q0 -24 14 -24 q25 0 58.5 39.5t60.5 93.5q16 29 30 0q13 -30 -4 -65q-20 -43 -63.5 -75.5t-87.5 -32.5q-73 0 -87 63q-61 -59 -114 -59q-43 0 -67 28t-24 74q0 74 54 149zM96 30q43 0 128 145q57 99 57 143q0 19 -12 19q-16 0 -60 -43.5t-80 -101.5q-47 -74 -47 -132q0 -30 14 -30z"></glyph><glyph glyph-name="aacute" unicode="á" d="M385 517q25 0 45 -11q22 -14 -1 -25l-38 -19q-55 -29 -77 -35q-36 -11 -59 0q-21 11 0 25q56 40 95 57q17 8 35 8zM46 237q56 81 113.5 121.5t99.5 40.5q52 0 67 -44l19 31q9 15 20.5 16.5t20.5 -9.5q14 -17 16 -46t-16 -70q-8 -16 -38.5 -65t-51 -92.5t-20.5 -73.5 q0 -24 14 -24q25 0 58.5 39.5t60.5 93.5q16 29 30 0q13 -30 -4 -65q-20 -43 -63.5 -75.5t-87.5 -32.5q-73 0 -87 63q-61 -59 -114 -59q-43 0 -67 28t-24 74q0 74 54 149zM96 30q43 0 128 145q57 99 57 143q0 19 -12 19q-16 0 -60 -43.5t-80 -101.5q-47 -74 -47 -132 q0 -30 14 -30z"></glyph><glyph glyph-name="acircumflex" unicode="â" d="M336 459l-50 -29q-26 -15 -57 -10q-13 3 -14.5 10.5t8.5 14.5q98 71 115 81q7 5 16 5q23 0 32 -17q5 -9 19.5 -34.5t19.5 -34.5q9 -17 -12 -23q-34 -9 -62 19q-9 9 -15 18zM46 237q56 81 113.5 121.5t99.5 40.5q52 0 67 -44l19 31q9 15 20.5 16.5t20.5 -9.5 q14 -17 16 -46t-16 -70q-8 -16 -38.5 -65t-51 -92.5t-20.5 -73.5q0 -24 14 -24q25 0 58.5 39.5t60.5 93.5q16 29 30 0q13 -30 -4 -65q-20 -43 -63.5 -75.5t-87.5 -32.5q-73 0 -87 63q-61 -59 -114 -59q-43 0 -67 28t-24 74q0 74 54 149zM96 30q43 0 128 145q57 99 57 143 q0 19 -12 19q-16 0 -60 -43.5t-80 -101.5q-47 -74 -47 -132q0 -30 14 -30z"></glyph><glyph glyph-name="atilde" unicode="ã" d="M243 428q-16 -8 -23 -3.5t-2 17.5q7 18 30 35t50 17q16 0 44 -6.5t41 -6.5q16 0 37 9q15 7 22.5 2.5t1.5 -19.5q-22 -50 -83 -50q-17 0 -47.5 6t-42.5 6q-15 0 -28 -7zM46 237q56 81 113.5 121.5t99.5 40.5q52 0 67 -44l19 31q9 15 20.5 16.5t20.5 -9.5q14 -17 16 -46 t-16 -70q-8 -16 -38.5 -65t-51 -92.5t-20.5 -73.5q0 -24 14 -24q25 0 58.5 39.5t60.5 93.5q16 29 30 0q13 -30 -4 -65q-20 -43 -63.5 -75.5t-87.5 -32.5q-73 0 -87 63q-61 -59 -114 -59q-43 0 -67 28t-24 74q0 74 54 149zM96 30q43 0 128 145q57 99 57 143q0 19 -12 19 q-16 0 -60 -43.5t-80 -101.5q-47 -74 -47 -132q0 -30 14 -30z"></glyph><glyph glyph-name="adieresis" unicode="ä" d="M365 419q-15 8 -20 23t3 32q9 18 26.5 27.5t32.5 2.5q33 -15 17 -54q-9 -19 -26.5 -28.5t-32.5 -2.5zM259 418q-14 6 -19.5 22t1.5 33q9 19 25.5 27.5t32.5 1.5q14 -6 19.5 -21t-2.5 -33q-8 -17 -25 -26t-32 -4zM46 237q56 81 113.5 121.5t99.5 40.5q52 0 67 -44l19 31 q9 15 20.5 16.5t20.5 -9.5q14 -17 16 -46t-16 -70q-8 -16 -38.5 -65t-51 -92.5t-20.5 -73.5q0 -24 14 -24q25 0 58.5 39.5t60.5 93.5q16 29 30 0q13 -30 -4 -65q-20 -43 -63.5 -75.5t-87.5 -32.5q-73 0 -87 63q-61 -59 -114 -59q-43 0 -67 28t-24 74q0 74 54 149zM96 30 q43 0 128 145q57 99 57 143q0 19 -12 19q-16 0 -60 -43.5t-80 -101.5q-47 -74 -47 -132q0 -30 14 -30z"></glyph><glyph glyph-name="aring" unicode="å" d="M384 549q23 0 41.5 -20t18.5 -40q0 -23 -12 -44q-13 -23 -35 -30t-47 9q-30 20 -30 55q0 17 8 35q18 35 56 35zM387 470q11 20 11 36q0 5 -3 5q-10 0 -19 -19q-7 -17 -7 -29q0 -11 3 -11q6 0 15 18zM46 237q56 81 113.5 121.5t99.5 40.5q52 0 67 -44l19 31 q9 15 20.5 16.5t20.5 -9.5q14 -17 16 -46t-16 -70q-8 -16 -38.5 -65t-51 -92.5t-20.5 -73.5q0 -24 14 -24q25 0 58.5 39.5t60.5 93.5q16 29 30 0q13 -30 -4 -65q-20 -43 -63.5 -75.5t-87.5 -32.5q-73 0 -87 63q-61 -59 -114 -59q-43 0 -67 28t-24 74q0 74 54 149zM96 30 q43 0 128 145q57 99 57 143q0 19 -12 19q-16 0 -60 -43.5t-80 -101.5q-47 -74 -47 -132q0 -30 14 -30z"></glyph><glyph glyph-name="ae" unicode="æ" d="M440 244q44 59 44 86q-2 8 -8 9q-17 0 -53.5 -37.5t-74.5 -94.5l-8 -12q13 -7 27 -7q26 0 73 56zM281 316q0 18 -11 18q-18 0 -61 -42t-79 -101q-46 -73 -46 -134q0 -31 11 -31q27 0 63 42.5t70 104.5q53 99 53 143zM585 160q3 -9 -0.5 -30.5t-14.5 -39.5 q-74 -110 -240 -110q-114 0 -128 68q-60 -64 -119 -64q-42 0 -65 27.5t-23 73.5q0 75 53 150q55 81 112.5 121t100.5 40q50 0 65 -42q12 18 19 28q20 29 41 7q11 -11 14 -32q38 23 72 23q47 0 74 -46q10 -17 10 -35q0 -52 -41 -103q-48 -60 -114 -60q-41 0 -79 26 q-4 -7 -12 -24t-11.5 -24.5t-8.5 -19t-7 -20t-2 -16.5q0 -40 52 -40q53 0 98 23t69.5 49.5t52.5 67.5q8 12 18 13t14 -11z"></glyph><glyph glyph-name="ccedilla" unicode="ç" d="M143 -102q-19 -33 -62 -33q-34 0 -56 28q-12 18 16 18q18 0 32.5 3t21.5 8t5 10q-1 3 -20 0q-22 -3 -33 10q-14 16 -2 33l17 25q-69 35 -69 123q0 57 31 116q37 74 89.5 115.5t98.5 41.5q26 0 54 -20t41 -44q16 -35 -20 -109q-10 -18 -18 -41q-5 -14 -13 -16.5t-23 5.5 q-35 21 -35 57q0 22 23 74q18 37 13 42q-6 5 -26 -12t-46 -51.5t-45 -72.5q-30 -62 -30 -112q0 -33 12.5 -52t32.5 -20q51 -1 99 39.5t85 96.5q7 12 16 13t14 -11q11 -29 -13 -67q-29 -46 -84.5 -77.5t-112.5 -32.5q-17 0 -26 1l-7 -14q29 -5 39 -23q15 -29 1 -51z"></glyph><glyph glyph-name="egrave" unicode="è" d="M176 483q-18 11 1 24q13 9 41 9q22 0 40 -9q46 -24 88 -60q18 -15 -4 -24q-28 -12 -59 1q-41 18 -107 59zM249 341q-8 6 -31 -10t-53.5 -53t-52.5 -82q11 -7 22 -7q34 0 76 57q22 30 34.5 59t4.5 36zM324 301q0 -51 -47 -108t-108 -57q-37 0 -71 22q-9 -30 -9 -59 q0 -34 13 -54.5t35 -20.5q94 0 184 136q9 12 17.5 12t14.5 -14q4 -4 1 -25.5t-15 -39.5q-32 -47 -87.5 -77.5t-112.5 -31.5q-68 -1 -106 38.5t-38 101.5q0 56 31 115q37 75 90.5 117t100.5 42q22 0 35 -8q43 -24 62 -52q10 -15 10 -37z"></glyph><glyph glyph-name="eacute" unicode="é" d="M302 517q25 0 45 -11q22 -14 -1 -25l-38 -19q-55 -29 -77 -35q-36 -11 -59 0q-21 11 0 25q56 40 95 57q17 8 35 8zM249 341q-8 6 -31 -10t-53.5 -53t-52.5 -82q11 -7 22 -7q34 0 76 57q22 30 34.5 59t4.5 36zM324 301q0 -51 -47 -108t-108 -57q-37 0 -71 22 q-9 -30 -9 -59q0 -34 13 -54.5t35 -20.5q94 0 184 136q9 12 17.5 12t14.5 -14q4 -4 1 -25.5t-15 -39.5q-32 -47 -87.5 -77.5t-112.5 -31.5q-68 -1 -106 38.5t-38 101.5q0 56 31 115q37 75 90.5 117t100.5 42q22 0 35 -8q43 -24 62 -52q10 -15 10 -37z"></glyph><glyph glyph-name="ecircumflex" unicode="ê" d="M273 459l-50 -29q-26 -15 -57 -10q-13 3 -14.5 10.5t8.5 14.5q98 71 115 81q7 5 16 5q23 0 32 -17q5 -9 19.5 -34.5t19.5 -34.5q9 -17 -12 -23q-34 -9 -62 19q-9 9 -15 18zM249 341q-8 6 -31 -10t-53.5 -53t-52.5 -82q11 -7 22 -7q34 0 76 57q22 30 34.5 59t4.5 36z M324 301q0 -51 -47 -108t-108 -57q-37 0 -71 22q-9 -30 -9 -59q0 -34 13 -54.5t35 -20.5q94 0 184 136q9 12 17.5 12t14.5 -14q4 -4 1 -25.5t-15 -39.5q-32 -47 -87.5 -77.5t-112.5 -31.5q-68 -1 -106 38.5t-38 101.5q0 56 31 115q37 75 90.5 117t100.5 42q22 0 35 -8 q43 -24 62 -52q10 -15 10 -37z"></glyph><glyph glyph-name="edieresis" unicode="ë" d="M292 419q-15 8 -20 23t3 32q9 18 26.5 27.5t32.5 2.5q33 -15 17 -54q-9 -19 -26.5 -28.5t-32.5 -2.5zM186 418q-14 6 -19.5 22t1.5 33q9 19 25.5 27.5t32.5 1.5q14 -6 19.5 -21t-2.5 -33q-8 -17 -25 -26t-32 -4zM249 341q-8 6 -31 -10t-53.5 -53t-52.5 -82q11 -7 22 -7 q34 0 76 57q22 30 34.5 59t4.5 36zM324 301q0 -51 -47 -108t-108 -57q-37 0 -71 22q-9 -30 -9 -59q0 -34 13 -54.5t35 -20.5q94 0 184 136q9 12 17.5 12t14.5 -14q4 -4 1 -25.5t-15 -39.5q-32 -47 -87.5 -77.5t-112.5 -31.5q-68 -1 -106 38.5t-38 101.5q0 56 31 115 q37 75 90.5 117t100.5 42q22 0 35 -8q43 -24 62 -52q10 -15 10 -37z"></glyph><glyph glyph-name="igrave" unicode="ì" d="M97 483q-18 11 1 24q13 9 41 9q22 0 40 -9q46 -24 88 -60q18 -15 -4 -24q-28 -12 -59 1q-41 18 -107 59zM227 90q-22 -46 -67.5 -75.5t-90.5 -29.5q-44 0 -66 23t-22 62q0 27 12 66q18 50 57 123.5t69 114.5q21 28 40 7q16 -17 17.5 -45.5t-16.5 -67.5q-9 -21 -41 -79.5 t-41 -78.5q-14 -36 -14 -60q0 -25 15 -25q28 0 63 40t60 95q6 13 14.5 12.5t15.5 -14.5q15 -28 -5 -68z"></glyph><glyph glyph-name="iacute" unicode="í" d="M242 517q25 0 45 -11q22 -14 -1 -25l-38 -19q-55 -29 -77 -35q-36 -11 -59 0q-21 11 0 25q56 40 95 57q17 8 35 8zM227 90q-22 -46 -67.5 -75.5t-90.5 -29.5q-44 0 -66 23t-22 62q0 27 12 66q18 50 57 123.5t69 114.5q21 28 40 7q16 -17 17.5 -45.5t-16.5 -67.5 q-9 -21 -41 -79.5t-41 -78.5q-14 -36 -14 -60q0 -25 15 -25q28 0 63 40t60 95q6 13 14.5 12.5t15.5 -14.5q15 -28 -5 -68z"></glyph><glyph glyph-name="icircumflex" unicode="î" d="M183 459l-50 -29q-26 -15 -57 -10q-13 3 -14.5 10.5t8.5 14.5q98 71 115 81q7 5 16 5q23 0 32 -17q5 -9 19.5 -34.5t19.5 -34.5q9 -17 -12 -23q-34 -9 -62 19q-9 9 -15 18zM227 90q-22 -46 -67.5 -75.5t-90.5 -29.5q-44 0 -66 23t-22 62q0 27 12 66q18 50 57 123.5 t69 114.5q21 28 40 7q16 -17 17.5 -45.5t-16.5 -67.5q-9 -21 -41 -79.5t-41 -78.5q-14 -36 -14 -60q0 -25 15 -25q28 0 63 40t60 95q6 13 14.5 12.5t15.5 -14.5q15 -28 -5 -68z"></glyph><glyph glyph-name="idieresis" unicode="ï" d="M222 419q-15 8 -20 23t3 32q9 18 26.5 27.5t32.5 2.5q33 -15 17 -54q-9 -19 -26.5 -28.5t-32.5 -2.5zM116 418q-14 6 -19.5 22t1.5 33q9 19 25.5 27.5t32.5 1.5q14 -6 19.5 -21t-2.5 -33q-8 -17 -25 -26t-32 -4zM227 90q-22 -46 -67.5 -75.5t-90.5 -29.5q-44 0 -66 23 t-22 62q0 27 12 66q18 50 57 123.5t69 114.5q21 28 40 7q16 -17 17.5 -45.5t-16.5 -67.5q-9 -21 -41 -79.5t-41 -78.5q-14 -36 -14 -60q0 -25 15 -25q28 0 63 40t60 95q6 13 14.5 12.5t15.5 -14.5q15 -28 -5 -68z"></glyph><glyph glyph-name="eth" unicode="ð" d="M399 589q26 0 42 -11q10 -7 10 -15t-10 -13q-37 -20 -65 -37q6 -30 6 -64q0 -72 -30 -174.5t-75 -175.5q-29 -49 -70 -81.5t-84 -32.5q-60 0 -99 51q-27 38 -27 87q0 67 42 140q31 55 75 92.5t89 37.5q52 0 78 -39q15 58 17 119q-25 -11 -44 -11q-20 0 -29 5 q-19 10 -1 26q23 19 67 47q-14 56 -51 80q-18 12 7 20q27 10 52 -4q36 -23 55 -59q24 12 45 12zM75 78q0 -42 22 -42q20 0 49 28t56 78q49 92 49 158q0 25 -10 30q-17 9 -55 -23.5t-69 -87.5q-42 -78 -42 -141z"></glyph><glyph glyph-name="ntilde" unicode="ñ" d="M202 428q-16 -8 -23 -3.5t-2 17.5q7 18 30 35t50 17q15 0 44 -6.5t41 -6.5q16 0 37 9q15 7 22.5 2.5t1.5 -19.5q-22 -50 -83 -50q-17 0 -47.5 6t-42.5 6q-15 0 -28 -7zM164 389q13 -22 13 -47q0 -14 -1 -20q78 73 127 73q22 0 39 -22.5t17 -50.5q0 -22 -50 -110 q-66 -105 -66 -154q0 -34 20 -34q24 0 58.5 39t63.5 93q7 14 17 14.5t16 -10.5q7 -8 6 -29.5t-11 -40.5q-22 -42 -69.5 -75t-91.5 -33q-96 0 -96 86q0 73 85 208q19 30 27 44.5t3 14.5t-20.5 -9t-41.5 -31t-51 -50q-56 -59 -141 -246q-13 -29 -36 -6q-22 22 -22 55 q0 22 9 52q14 42 62.5 130.5t95.5 158.5q10 14 20 14t18 -14z"></glyph><glyph glyph-name="ograve" unicode="ò" d="M182 483q-18 11 1 24q13 9 41 9q22 0 40 -9q46 -24 88 -60q18 -15 -4 -24q-28 -12 -59 1q-41 18 -107 59zM345 212q-10 -11 -26 -14q-17 -67 -62 -127.5t-99 -79.5q-18 -6 -36 -6q-59 0 -98 51q-28 37 -28 87q0 64 42 140q34 61 79.5 95.5t94.5 34.5q39 0 66 -37 q5 -6 14 -15t13 -13.5t10.5 -14.5t7.5 -19t3.5 -26.5t-1.5 -36.5q12 0 18.5 -2.5t6 -7t-4.5 -9.5zM250 251q14 32 14 60q0 21 -15 21q-5 0 -10 -6.5t-5 -17.5q0 -38 16 -57zM74 78q0 -42 24 -42q20 0 48 27.5t55 77.5q25 43 33 72q-50 31 -61 81q-31 -30 -57 -75 q-42 -78 -42 -141z"></glyph><glyph glyph-name="oacute" unicode="ó" d="M308 517q25 0 45 -11q22 -14 -1 -25l-38 -19q-55 -29 -77 -35q-36 -11 -59 0q-21 11 0 25q56 40 95 57q17 8 35 8zM345 212q-10 -11 -26 -14q-17 -67 -62 -127.5t-99 -79.5q-18 -6 -36 -6q-59 0 -98 51q-28 37 -28 87q0 64 42 140q34 61 79.5 95.5t94.5 34.5q39 0 66 -37 q5 -6 14 -15t13 -13.5t10.5 -14.5t7.5 -19t3.5 -26.5t-1.5 -36.5q12 0 18.5 -2.5t6 -7t-4.5 -9.5zM250 251q14 32 14 60q0 21 -15 21q-5 0 -10 -6.5t-5 -17.5q0 -38 16 -57zM74 78q0 -42 24 -42q20 0 48 27.5t55 77.5q25 43 33 72q-50 31 -61 81q-31 -30 -57 -75 q-42 -78 -42 -141z"></glyph><glyph glyph-name="ocircumflex" unicode="ô" d="M279 459l-50 -29q-26 -15 -57 -10q-13 3 -14.5 10.5t8.5 14.5q98 71 115 81q7 5 16 5q23 0 32 -17q5 -9 19.5 -34.5t19.5 -34.5q9 -17 -12 -23q-34 -9 -62 19q-9 9 -15 18zM345 212q-10 -11 -26 -14q-17 -67 -62 -127.5t-99 -79.5q-18 -6 -36 -6q-59 0 -98 51 q-28 37 -28 87q0 64 42 140q34 61 79.5 95.5t94.5 34.5q39 0 66 -37q5 -6 14 -15t13 -13.5t10.5 -14.5t7.5 -19t3.5 -26.5t-1.5 -36.5q12 0 18.5 -2.5t6 -7t-4.5 -9.5zM250 251q14 32 14 60q0 21 -15 21q-5 0 -10 -6.5t-5 -17.5q0 -38 16 -57zM74 78q0 -42 24 -42 q20 0 48 27.5t55 77.5q25 43 33 72q-50 31 -61 81q-31 -30 -57 -75q-42 -78 -42 -141z"></glyph><glyph glyph-name="otilde" unicode="õ" d="M176 428q-16 -8 -23 -3.5t-2 17.5q7 18 30 35t50 17q15 0 44 -6.5t41 -6.5q16 0 37 9q15 7 22.5 2.5t1.5 -19.5q-22 -50 -83 -50q-17 0 -47.5 6t-42.5 6q-15 0 -28 -7zM345 212q-10 -11 -26 -14q-17 -67 -62 -127.5t-99 -79.5q-18 -6 -36 -6q-59 0 -98 51q-28 37 -28 87 q0 64 42 140q34 61 79.5 95.5t94.5 34.5q39 0 66 -37q5 -6 14 -15t13 -13.5t10.5 -14.5t7.5 -19t3.5 -26.5t-1.5 -36.5q12 0 18.5 -2.5t6 -7t-4.5 -9.5zM250 251q14 32 14 60q0 21 -15 21q-5 0 -10 -6.5t-5 -17.5q0 -38 16 -57zM74 78q0 -42 24 -42q20 0 48 27.5t55 77.5 q25 43 33 72q-50 31 -61 81q-31 -30 -57 -75q-42 -78 -42 -141z"></glyph><glyph glyph-name="odieresis" unicode="ö" d="M298 419q-15 8 -20 23t3 32q9 18 26.5 27.5t32.5 2.5q33 -15 17 -54q-9 -19 -26.5 -28.5t-32.5 -2.5zM192 418q-14 6 -19.5 22t1.5 33q9 19 25.5 27.5t32.5 1.5q14 -6 19.5 -21t-2.5 -33q-8 -17 -25 -26t-32 -4zM345 212q-10 -11 -26 -14q-17 -67 -62 -127.5t-99 -79.5 q-18 -6 -36 -6q-59 0 -98 51q-28 37 -28 87q0 64 42 140q34 61 79.5 95.5t94.5 34.5q39 0 66 -37q5 -6 14 -15t13 -13.5t10.5 -14.5t7.5 -19t3.5 -26.5t-1.5 -36.5q12 0 18.5 -2.5t6 -7t-4.5 -9.5zM250 251q14 32 14 60q0 21 -15 21q-5 0 -10 -6.5t-5 -17.5q0 -38 16 -57z M74 78q0 -42 24 -42q20 0 48 27.5t55 77.5q25 43 33 72q-50 31 -61 81q-31 -30 -57 -75q-42 -78 -42 -141z"></glyph><glyph glyph-name="divide" unicode="÷" d="M224 337q-19 7 -25.5 25t4.5 42q11 22 30.5 33.5t38.5 3.5q18 -7 23.5 -25t-2.5 -40q-9 -22 -29.5 -34t-39.5 -5zM275 245q-27 0 -74.5 -5.5t-67.5 -4.5q-67 3 -81 57q-2 8 4.5 14.5t16.5 6.5q28 -1 90 3.5t80 4.5q70 0 85 -57q2 -10 -3 -15.5t-20 -4.5q-10 1 -30 1z M111 111q-17 7 -24 27t3 41q11 22 31 33t39 4q17 -7 23 -26t-2 -41q-8 -21 -30 -33t-40 -5z"></glyph><glyph glyph-name="oslash" unicode="ø" d="M115 219q-17 -32 -34 -88q78 100 162 194q-35 -4 -69.5 -33t-58.5 -73zM179 165q-57 -65 -98 -114q51 -12 120 90q29 43 48 107zM302 396q14 15 26.5 14t12.5 -17q0 -33 -30 -77q14 -21 14 -72q0 -87 -64.5 -173t-141.5 -86q-36 0 -66 23l-18 -26v1q-11 -15 -20.5 -13 t-12.5 18q-4 26 14 59q-21 35 -21 77q0 65 42 139q34 59 80.5 94.5t93.5 35.5q37 0 62 -28q28 30 29 31z"></glyph><glyph glyph-name="ugrave" unicode="ù" d="M218 483q-18 11 1 24q13 9 41 9q22 0 40 -9q46 -24 88 -60q18 -15 -4 -24q-28 -12 -59 1q-41 18 -107 59zM431 90q-23 -44 -67 -76t-89 -32q-86 0 -93 74q-62 -69 -130 -69q-36 0 -53.5 23t-17.5 58q0 34 13 69q41 119 135 250q21 27 43 0q15 -19 15 -46 q0 -18 -18.5 -57.5t-48 -95t-41.5 -81.5q-14 -31 -14.5 -53.5t15.5 -23.5q36 0 130 148q26 43 64 114t57 96q24 32 42 6q15 -21 15 -52q0 -43 -56 -136q-68 -110 -68 -154q0 -28 19 -28q23 0 56 39t64 93q8 13 18.5 14t16.5 -13q13 -29 -7 -67z"></glyph><glyph glyph-name="uacute" unicode="ú" d="M344 517q25 0 45 -11q22 -14 -1 -25l-38 -19q-55 -29 -77 -35q-36 -11 -59 0q-21 11 0 25q56 40 95 57q17 8 35 8zM431 90q-23 -44 -67 -76t-89 -32q-86 0 -93 74q-62 -69 -130 -69q-36 0 -53.5 23t-17.5 58q0 34 13 69q41 119 135 250q21 27 43 0q15 -19 15 -46 q0 -18 -18.5 -57.5t-48 -95t-41.5 -81.5q-14 -31 -14.5 -53.5t15.5 -23.5q36 0 130 148q26 43 64 114t57 96q24 32 42 6q15 -21 15 -52q0 -43 -56 -136q-68 -110 -68 -154q0 -28 19 -28q23 0 56 39t64 93q8 13 18.5 14t16.5 -13q13 -29 -7 -67z"></glyph><glyph glyph-name="ucircumflex" unicode="û" d="M315 459l-50 -29q-26 -15 -57 -10q-13 3 -14.5 10.5t8.5 14.5q98 71 115 81q7 5 16 5q23 0 32 -17q5 -9 19.5 -34.5t19.5 -34.5q9 -17 -12 -23q-34 -9 -62 19q-9 9 -15 18zM431 90q-23 -44 -67 -76t-89 -32q-86 0 -93 74q-62 -69 -130 -69q-36 0 -53.5 23t-17.5 58 q0 34 13 69q41 119 135 250q21 27 43 0q15 -19 15 -46q0 -18 -18.5 -57.5t-48 -95t-41.5 -81.5q-14 -31 -14.5 -53.5t15.5 -23.5q36 0 130 148q26 43 64 114t57 96q24 32 42 6q15 -21 15 -52q0 -43 -56 -136q-68 -110 -68 -154q0 -28 19 -28q23 0 56 39t64 93q8 13 18.5 14 t16.5 -13q13 -29 -7 -67z"></glyph><glyph glyph-name="udieresis" unicode="ü" d="M334 419q-15 8 -20 23t3 32q9 18 26.5 27.5t32.5 2.5q33 -15 17 -54q-9 -19 -26.5 -28.5t-32.5 -2.5zM228 418q-14 6 -19.5 22t1.5 33q9 19 25.5 27.5t32.5 1.5q14 -6 19.5 -21t-2.5 -33q-8 -17 -25 -26t-32 -4zM431 90q-23 -44 -67 -76t-89 -32q-86 0 -93 74 q-62 -69 -130 -69q-36 0 -53.5 23t-17.5 58q0 34 13 69q41 119 135 250q21 27 43 0q15 -19 15 -46q0 -18 -18.5 -57.5t-48 -95t-41.5 -81.5q-14 -31 -14.5 -53.5t15.5 -23.5q36 0 130 148q26 43 64 114t57 96q24 32 42 6q15 -21 15 -52q0 -43 -56 -136q-68 -110 -68 -154 q0 -28 19 -28q23 0 56 39t64 93q8 13 18.5 14t16.5 -13q13 -29 -7 -67z"></glyph><glyph glyph-name="yacute" unicode="ý" d="M329 517q25 0 45 -11q22 -14 -1 -25l-38 -19q-55 -29 -77 -35q-36 -11 -59 0q-21 11 0 25q56 40 95 57q17 8 35 8zM402 166q10 -32 -14 -68q-28 -43 -74 -73.5t-114 -58.5q-27 -66 -45 -105t-46.5 -92t-58 -84.5t-60.5 -43.5q-39 -15 -68 23q-30 42 -30 83q0 20 9 47 q43 119 209 186l15 35q-38 -28 -82 -28q-35 0 -53.5 23t-18.5 57t13 70q48 131 134 249q21 28 39 2q19 -27 19 -48q0 -35 -35 -91q-46 -74 -74 -142q-30 -76 3 -76q36 0 120 142q36 60 71.5 127t46.5 83q21 26 38 9q19 -19 19 -51t-18 -67q-90 -173 -122 -248q89 54 145 133 q10 13 19.5 15t12.5 -8zM84 -85q-65 -45 -103 -115q-18 -34 -24 -63t2 -34q5 -4 19.5 15t36.5 57q31 55 69 140z"></glyph><glyph glyph-name="thorn" unicode="þ" d="M149 235l-32 -54q-20 -53 -20 -89q0 -38 15 -47q18 -10 55.5 32t68.5 106q36 70 36 131q0 33 -11 33q-15 0 -49 -31t-63 -81zM-118 -100q34 101 164 339t219 371q25 35 42 -1q9 -18 9 -40q0 -49 -38 -115q-19 -34 -44 -70q18 6 35 6q32 0 58 -26q30 -33 30 -80 q0 -61 -39 -142q-36 -82 -86 -123q50 12 92 50.5t65 85.5q9 18 22.5 16t16.5 -18q6 -32 -14 -68q-31 -56 -91 -82t-125 -26q-79 0 -119 39q-24 21 -30 41q-75 -139 -129 -266q-16 -36 -35 -4q-15 26 -15 48q0 29 12 65z"></glyph><glyph glyph-name="ydieresis" unicode="ÿ" d="M319 419q-15 8 -20 23t3 32q9 18 26.5 27.5t32.5 2.5q33 -15 17 -54q-9 -19 -26.5 -28.5t-32.5 -2.5zM213 418q-14 6 -19.5 22t1.5 33q9 19 25.5 27.5t32.5 1.5q14 -6 19.5 -21t-2.5 -33q-8 -17 -25 -26t-32 -4zM402 166q10 -32 -14 -68q-28 -43 -74 -73.5t-114 -58.5 q-27 -66 -45 -105t-46.5 -92t-58 -84.5t-60.5 -43.5q-39 -15 -68 23q-30 42 -30 83q0 20 9 47q43 119 209 186l15 35q-38 -28 -82 -28q-35 0 -53.5 23t-18.5 57t13 70q48 131 134 249q21 28 39 2q19 -27 19 -48q0 -35 -35 -91q-46 -74 -74 -142q-30 -76 3 -76q36 0 120 142 q36 60 71.5 127t46.5 83q21 26 38 9q19 -19 19 -51t-18 -67q-90 -173 -122 -248q89 54 145 133q10 13 19.5 15t12.5 -8zM84 -85q-65 -45 -103 -115q-18 -34 -24 -63t2 -34q5 -4 19.5 15t36.5 57q31 55 69 140z"></glyph><glyph glyph-name="Amacron" unicode="Ā" d="M449 647q-50 -4 -62 -4q-51 0 -56 42q-2 10 2.5 14.5t16.5 3.5q7 -1 86 3q56 4 77 4q50 0 56 -43q2 -10 -3.5 -15t-19.5 -1q-18 5 -97 -4zM308 226q21 148 57 255q-109 -132 -199 -271q40 4 59 7q74 9 83 9zM337 -9q-41 20 -42 95q0 41 3 67l-70 -7q-80 -8 -107 -7 q-14 -25 -38 -72.5t-34 -65.5q-9 -15 -19.5 -14.5t-16.5 11.5q-12 24 -12 37q0 29 16 68q12 30 24 53q-21 15 -30 33q-6 14 -1.5 19t23.5 2q20 -3 36 -4q62 108 153 229t165 184q31 25 52 -3q13 -17 23 -41q8 -19 8 -35q0 -21 -8 -41q-44 -138 -70 -281q31 -14 44 -52 q4 -12 -1 -15.5t-19 -1.5l-35 6q-10 -87 -13 -150q0 -28 -31 -14z"></glyph><glyph glyph-name="amacron" unicode="ā" d="M301 426q-50 -4 -62 -4q-51 0 -56 42q-2 10 2.5 14.5t16.5 3.5q7 -1 86 3q56 4 77 4q50 0 56 -43q2 -10 -3.5 -15t-19.5 -1q-18 5 -97 -4zM46 237q56 81 113.5 121.5t99.5 40.5q52 0 67 -44l19 31q9 15 20.5 16.5t20.5 -9.5q14 -17 16 -46t-16 -70q-8 -16 -38.5 -65 t-51 -92.5t-20.5 -73.5q0 -24 14 -24q25 0 58.5 39.5t60.5 93.5q16 29 30 0q13 -30 -4 -65q-20 -43 -63.5 -75.5t-87.5 -32.5q-73 0 -87 63q-61 -59 -114 -59q-43 0 -67 28t-24 74q0 74 54 149zM96 30q43 0 128 145q57 99 57 143q0 19 -12 19q-16 0 -60 -43.5t-80 -101.5 q-47 -74 -47 -132q0 -30 14 -30z"></glyph><glyph glyph-name="Abreve" unicode="Ă" d="M384 704q0 18 16 32q19 17 32 -5q20 -34 55 -34q28 0 56 32q21 23 32 -2q4 -10 -0.5 -26t-17.5 -30q-30 -32 -85 -32q-47 0 -71 25q-17 19 -17 40zM308 226q21 148 57 255q-109 -132 -199 -271q40 4 59 7q74 9 83 9zM337 -9q-41 20 -42 95q0 41 3 67l-70 -7 q-80 -8 -107 -7q-14 -25 -38 -72.5t-34 -65.5q-9 -15 -19.5 -14.5t-16.5 11.5q-12 24 -12 37q0 29 16 68q12 30 24 53q-21 15 -30 33q-6 14 -1.5 19t23.5 2q20 -3 36 -4q62 108 153 229t165 184q31 25 52 -3q13 -17 23 -41q8 -19 8 -35q0 -21 -8 -41q-44 -138 -70 -281 q31 -14 44 -52q4 -12 -1 -15.5t-19 -1.5l-35 6q-10 -87 -13 -150q0 -28 -31 -14z"></glyph><glyph glyph-name="abreve" unicode="ă" d="M206 493q0 18 16 32q19 17 32 -5q20 -34 55 -34q28 0 56 32q21 23 32 -2q4 -10 -0.5 -26t-17.5 -30q-30 -32 -85 -32q-47 0 -71 25q-17 19 -17 40zM46 237q56 81 113.5 121.5t99.5 40.5q52 0 67 -44l19 31q9 15 20.5 16.5t20.5 -9.5q14 -17 16 -46t-16 -70 q-8 -16 -38.5 -65t-51 -92.5t-20.5 -73.5q0 -24 14 -24q25 0 58.5 39.5t60.5 93.5q16 29 30 0q13 -30 -4 -65q-20 -43 -63.5 -75.5t-87.5 -32.5q-73 0 -87 63q-61 -59 -114 -59q-43 0 -67 28t-24 74q0 74 54 149zM96 30q43 0 128 145q57 99 57 143q0 19 -12 19 q-16 0 -60 -43.5t-80 -101.5q-47 -74 -47 -132q0 -30 14 -30z"></glyph><glyph glyph-name="Aogonek" unicode="Ą" d="M308 226q21 148 57 255q-109 -132 -199 -271q40 4 59 7q74 9 83 9zM453 -88q0 -40 -58 -77.5t-116 -37.5q-51 0 -81 26t-29 58q1 44 43 80.5t98 55.5q-14 26 -15 69q0 41 3 67l-70 -7q-80 -8 -107 -7q-14 -25 -38 -72.5t-34 -65.5q-9 -15 -19.5 -14.5t-16.5 11.5 q-12 24 -12 37q0 29 16 68q12 30 24 53q-21 15 -30 33q-6 14 -1.5 19t23.5 2q20 -3 36 -4q62 108 153 229t165 184q31 25 52 -3q13 -17 23 -41q8 -19 8 -35q0 -21 -8 -41q-44 -138 -70 -281q31 -14 44 -52q4 -12 -1 -15.5t-19 -1.5l-35 6q-10 -87 -13 -150q0 -15 -11 -17 l-16 -15q-30 -26 -46.5 -41t-31.5 -35.5t-15 -35.5q0 -9 6.5 -15.5t17.5 -6.5q47 0 148 85q7 5 15 5q18 0 18 -17z"></glyph><glyph glyph-name="aogonek" unicode="ą" d="M268 -206q-50 0 -79.5 27.5t-29.5 60.5q0 51 89 110q-44 21 -51 53q-61 -59 -114 -59q-43 0 -67 28t-24 74q0 74 54 149q56 81 113.5 121.5t99.5 40.5q52 0 67 -44l19 31q9 15 20.5 16.5t20.5 -9.5q14 -17 16 -46t-16 -70q-8 -16 -38.5 -65t-51 -92.5t-20.5 -73.5 q0 -24 14 -24q25 0 58.5 39.5t60.5 93.5q16 29 30 0q13 -30 -4 -65q-18 -38 -66 -77q-49 -40 -90.5 -84.5t-41.5 -66.5q0 -10 6.5 -18.5t18.5 -8.5q42 0 149 90q8 6 14 6q16 0 16 -19q0 -39 -59.5 -78.5t-113.5 -39.5zM96 30q43 0 128 145q57 99 57 143q0 19 -12 19 q-16 0 -60 -43.5t-80 -101.5q-47 -74 -47 -132q0 -30 14 -30z"></glyph><glyph glyph-name="Cacute" unicode="Ć" d="M533 736q25 0 45 -11q22 -14 -1 -25l-38 -19q-55 -29 -77 -35q-36 -11 -59 0q-21 11 0 25q56 40 95 57q17 8 35 8zM374 211q6 12 19 12.5t21 -15.5q7 -15 7 -33q0 -39 -28 -78.5t-62 -64.5q-58 -41 -129 -41q-50 0 -88 21q-37 20 -63 65.5t-27 104.5q-2 94 48 189 t114.5 156t125.5 89q44 17 79 17q39 0 65 -21q60 -53 60 -108q0 -30 -14 -58q-26 -52 -38 -90q-4 -14 -14 -18.5t-25 3.5q-34 22 -34 64q0 17 6 37q3 10 17 46q27 66 14 80q-12 13 -55 -8t-99 -72.5t-95 -114.5q-63 -102 -63 -213q0 -60 22 -92t52 -32q42 0 91.5 46.5 t92.5 128.5z"></glyph><glyph glyph-name="cacute" unicode="ć" d="M297 517q25 0 45 -11q22 -14 -1 -25l-38 -19q-55 -29 -77 -35q-36 -11 -59 0q-21 11 0 25q56 40 95 57q17 8 35 8zM212 396q26 0 54 -20t41 -44q16 -35 -20 -109q-10 -18 -18 -41q-5 -14 -13 -16.5t-23 5.5q-35 21 -35 57q0 22 23 74q18 37 13 42q-6 5 -26 -12t-46 -51.5 t-45 -72.5q-30 -62 -30 -112q0 -33 12.5 -52t32.5 -20q51 -1 99 39.5t85 96.5q7 12 16 13t14 -11q11 -29 -13 -67q-29 -46 -84.5 -77.5t-112.5 -32.5q-67 -1 -105 37.5t-38 100.5q0 57 31 116q37 74 89.5 115.5t98.5 41.5z"></glyph><glyph glyph-name="Ccircumflex" unicode="Ĉ" d="M452 672l-50 -29q-26 -15 -57 -10q-13 3 -14.5 10.5t8.5 14.5q98 71 115 81q7 5 16 5q23 0 32 -17q5 -9 19.5 -34.5t19.5 -34.5q9 -17 -12 -23q-34 -9 -62 19q-9 9 -15 18zM374 211q6 12 19 12.5t21 -15.5q7 -15 7 -33q0 -39 -28 -78.5t-62 -64.5q-58 -41 -129 -41 q-50 0 -88 21q-37 20 -63 65.5t-27 104.5q-2 94 48 189t114.5 156t125.5 89q44 17 79 17q39 0 65 -21q60 -53 60 -108q0 -30 -14 -58q-26 -52 -38 -90q-4 -14 -14 -18.5t-25 3.5q-34 22 -34 64q0 17 6 37q3 10 17 46q27 66 14 80q-12 13 -55 -8t-99 -72.5t-95 -114.5 q-63 -102 -63 -213q0 -60 22 -92t52 -32q42 0 91.5 46.5t92.5 128.5z"></glyph><glyph glyph-name="ccircumflex" unicode="ĉ" d="M268 459l-50 -29q-26 -15 -57 -10q-13 3 -14.5 10.5t8.5 14.5q98 71 115 81q7 5 16 5q23 0 32 -17q5 -9 19.5 -34.5t19.5 -34.5q9 -17 -12 -23q-34 -9 -62 19q-9 9 -15 18zM212 396q26 0 54 -20t41 -44q16 -35 -20 -109q-10 -18 -18 -41q-5 -14 -13 -16.5t-23 5.5 q-35 21 -35 57q0 22 23 74q18 37 13 42q-6 5 -26 -12t-46 -51.5t-45 -72.5q-30 -62 -30 -112q0 -33 12.5 -52t32.5 -20q51 -1 99 39.5t85 96.5q7 12 16 13t14 -11q11 -29 -13 -67q-29 -46 -84.5 -77.5t-112.5 -32.5q-67 -1 -105 37.5t-38 100.5q0 57 31 116 q37 74 89.5 115.5t98.5 41.5z"></glyph><glyph glyph-name="Cdotaccent" unicode="Ċ" d="M458 737q16 18 39 10.5t35 -33.5q8 -18 8 -31q0 -23 -16 -41q-13 -15 -36 -11.5t-37 26.5q-11 21 -11 38q0 22 18 42zM374 211q6 12 19 12.5t21 -15.5q7 -15 7 -33q0 -39 -28 -78.5t-62 -64.5q-58 -41 -129 -41q-50 0 -88 21q-37 20 -63 65.5t-27 104.5q-2 94 48 189 t114.5 156t125.5 89q44 17 79 17q39 0 65 -21q60 -53 60 -108q0 -30 -14 -58q-26 -52 -38 -90q-4 -14 -14 -18.5t-25 3.5q-34 22 -34 64q0 17 6 37q3 10 17 46q27 66 14 80q-12 13 -55 -8t-99 -72.5t-95 -114.5q-63 -102 -63 -213q0 -60 22 -92t52 -32q42 0 91.5 46.5 t92.5 128.5z"></glyph><glyph glyph-name="cdotaccent" unicode="ċ" d="M222 526q16 18 39 10.5t35 -33.5q8 -18 8 -31q0 -23 -16 -41q-13 -15 -36 -11.5t-37 26.5q-11 21 -11 38q0 22 18 42zM212 396q26 0 54 -20t41 -44q16 -35 -20 -109q-10 -18 -18 -41q-5 -14 -13 -16.5t-23 5.5q-35 21 -35 57q0 22 23 74q18 37 13 42q-6 5 -26 -12 t-46 -51.5t-45 -72.5q-30 -62 -30 -112q0 -33 12.5 -52t32.5 -20q51 -1 99 39.5t85 96.5q7 12 16 13t14 -11q11 -29 -13 -67q-29 -46 -84.5 -77.5t-112.5 -32.5q-67 -1 -105 37.5t-38 100.5q0 57 31 116q37 74 89.5 115.5t98.5 41.5z"></glyph><glyph glyph-name="Ccaron" unicode="Č" d="M430 740q34 7 61 -21q10 -12 14 -17q34 22 51 30q34 17 58 9q12 -4 13.5 -10.5t-6.5 -12.5q-123 -88 -142 -88q-14 0 -24 18q-4 7 -18.5 33.5t-19.5 34.5q-12 18 13 24zM374 211q6 12 19 12.5t21 -15.5q7 -15 7 -33q0 -39 -28 -78.5t-62 -64.5q-58 -41 -129 -41 q-50 0 -88 21q-37 20 -63 65.5t-27 104.5q-2 94 48 189t114.5 156t125.5 89q44 17 79 17q39 0 65 -21q60 -53 60 -108q0 -30 -14 -58q-26 -52 -38 -90q-4 -14 -14 -18.5t-25 3.5q-34 22 -34 64q0 17 6 37q3 10 17 46q27 66 14 80q-12 13 -55 -8t-99 -72.5t-95 -114.5 q-63 -102 -63 -213q0 -60 22 -92t52 -32q42 0 91.5 46.5t92.5 128.5z"></glyph><glyph glyph-name="ccaron" unicode="č" d="M204 529q34 7 61 -21q10 -12 14 -17q34 22 51 30q34 17 58 9q12 -4 13.5 -10.5t-6.5 -12.5q-123 -88 -142 -88q-14 0 -24 18q-4 7 -18.5 33.5t-19.5 34.5q-12 18 13 24zM212 396q26 0 54 -20t41 -44q16 -35 -20 -109q-10 -18 -18 -41q-5 -14 -13 -16.5t-23 5.5 q-35 21 -35 57q0 22 23 74q18 37 13 42q-6 5 -26 -12t-46 -51.5t-45 -72.5q-30 -62 -30 -112q0 -33 12.5 -52t32.5 -20q51 -1 99 39.5t85 96.5q7 12 16 13t14 -11q11 -29 -13 -67q-29 -46 -84.5 -77.5t-112.5 -32.5q-67 -1 -105 37.5t-38 100.5q0 57 31 116 q37 74 89.5 115.5t98.5 41.5z"></glyph><glyph glyph-name="Dcaron" unicode="Ď" d="M360 740q34 7 61 -21q10 -12 14 -17q34 22 51 30q34 17 58 9q12 -4 13.5 -10.5t-6.5 -12.5q-123 -88 -142 -88q-14 0 -24 18q-4 7 -18.5 33.5t-19.5 34.5q-12 18 13 24zM4 89q0 20 14 64q21 64 72 161.5t105 179.5q-45 6 -60 44q-4 11 -0.5 17.5t18.5 8.5q37 5 93 30 q48 21 91 29q95 15 158 -89q23 -38 23 -100q0 -81 -48 -169t-136 -162.5t-195 -110.5q-18 -6 -33 -6q-23 0 -39.5 11.5t-36.5 37.5q-26 35 -26 54zM393 547q-14 0 -36 -7.5t-48.5 -19.5t-35.5 -15q5 -44 -28 -103q-132 -222 -157 -308q-5 -18 -5 -29q0 -13 15 -7 q104 40 185.5 117t120 154.5t38.5 140.5q0 36 -12 55q-14 22 -37 22z"></glyph><glyph glyph-name="dcaron" unicode="ď" d="M644 568q-31 -54 -85 -119q-15 -18 -38 -14q-8 1 -13.5 8t-2.5 15q13 33 46.5 89t56.5 82q12 12 26 10.5t18 -13.5q9 -30 -8 -58zM473 457q-20 -38 -91.5 -165.5t-98.5 -183.5q-18 -39 -18 -64q0 -22 13 -22q25 0 57.5 38.5t60.5 93.5q8 14 16.5 14t15.5 -14 q14 -26 -4 -65q-21 -43 -63 -74.5t-84 -31.5q-79 0 -90 61q-56 -58 -114 -58q-42 0 -66 28.5t-24 73.5q0 71 53 148q55 79 112.5 119.5t100.5 40.5q52 0 64 -40q95 178 148 254q26 37 42 -1q9 -22 9 -39q0 -42 -39 -113zM212 173q81 157 53 162q-22 1 -65 -41t-82 -103 q-46 -72 -46 -130q0 -31 15 -31q24 0 57.5 38.5t67.5 104.5z"></glyph><glyph glyph-name="Dcroat" unicode="Đ" d="M106 -14q-23 0 -39.5 11.5t-36.5 37.5q-26 35 -26 54q0 20 14 64q15 46 52 122q-55 8 -67 56q-2 8 4.5 14.5t17.5 6.5q41 -2 87 3q38 69 83 139q-45 6 -60 44q-4 11 -0.5 17.5t18.5 8.5q37 5 93 30q48 21 91 29q95 15 158 -89q23 -38 23 -100q0 -81 -48 -169t-136 -162.5 t-195 -110.5q-18 -6 -33 -6zM83 65q0 -13 15 -7q104 40 185.5 117t120 154.5t38.5 140.5q0 36 -12 55q-14 22 -37 22q-14 0 -36 -7.5t-48.5 -19.5t-35.5 -15q5 -44 -28 -103q-18 -30 -26 -44q49 -8 60 -54q2 -11 -3 -16.5t-19 -4.5q-36 4 -82 -2q-69 -122 -87 -187 q-5 -18 -5 -29z"></glyph><glyph glyph-name="dcroat" unicode="đ" d="M277 -17q-79 0 -90 61q-56 -58 -114 -58q-42 0 -66 28.5t-24 73.5q0 71 53 148q55 79 112.5 119.5t100.5 40.5q52 0 64 -40q39 71 53 96q-53 8 -65 56q-2 8 4.5 14t17.5 6q35 0 89 4q34 57 49 78q26 37 42 -1q9 -22 9 -39q0 -13 -5 -35q59 -4 70 -55q2 -10 -3 -16t-19 -5 q-11 1 -31 1q-26 0 -51 -3q-20 -38 -91.5 -165.5t-98.5 -183.5q-18 -39 -18 -64q0 -22 13 -22q25 0 57.5 38.5t60.5 93.5q8 14 16.5 14t15.5 -14q14 -26 -4 -65q-21 -43 -63 -74.5t-84 -31.5zM212 173q81 157 53 162q-22 1 -65 -41t-82 -103q-46 -72 -46 -130q0 -31 15 -31 q24 0 57.5 38.5t67.5 104.5z"></glyph><glyph glyph-name="Emacron" unicode="Ē" d="M382 647q-50 -4 -62 -4q-51 0 -56 42q-2 10 2.5 14.5t16.5 3.5q7 -1 86 3q56 4 77 4q50 0 56 -43q2 -10 -3.5 -15t-19.5 -1q-18 5 -97 -4zM-24 38q-10 16 4 54q33 87 97 208t127 220q-32 21 -40 50q-2 10 4.5 15t18.5 5q72 0 156 14q68 10 88 10q64 1 84 -52 q3 -9 -2.5 -14.5t-19.5 -5.5q-52 0 -151 -19q-25 -5 -40 -7q-34 -51 -126 -218q18 3 52 5q75 3 92 -48q9 -23 -20 -23q-73 0 -173 -26q-45 -86 -69 -139q75 20 136 24q76 3 94 -47q8 -22 -19 -22q-64 1 -215 -40q-37 -11 -53 12q-4 5 -12 20t-13 24z"></glyph><glyph glyph-name="emacron" unicode="ē" d="M258 426q-50 -4 -62 -4q-51 0 -56 42q-2 10 2.5 14.5t16.5 3.5q7 -1 86 3q56 4 77 4q50 0 56 -43q2 -10 -3.5 -15t-19.5 -1q-18 5 -97 -4zM249 341q-8 6 -31 -10t-53.5 -53t-52.5 -82q11 -7 22 -7q34 0 76 57q22 30 34.5 59t4.5 36zM324 301q0 -51 -47 -108t-108 -57 q-37 0 -71 22q-9 -30 -9 -59q0 -34 13 -54.5t35 -20.5q94 0 184 136q9 12 17.5 12t14.5 -14q4 -4 1 -25.5t-15 -39.5q-32 -47 -87.5 -77.5t-112.5 -31.5q-68 -1 -106 38.5t-38 101.5q0 56 31 115q37 75 90.5 117t100.5 42q22 0 35 -8q43 -24 62 -52q10 -15 10 -37z"></glyph><glyph glyph-name="Ebreve" unicode="Ĕ" d="M287 704q0 18 16 32q19 17 32 -5q20 -34 55 -34q28 0 56 32q21 23 32 -2q4 -10 -0.5 -26t-17.5 -30q-30 -32 -85 -32q-47 0 -71 25q-17 19 -17 40zM-24 38q-10 16 4 54q33 87 97 208t127 220q-32 21 -40 50q-2 10 4.5 15t18.5 5q72 0 156 14q68 10 88 10q64 1 84 -52 q3 -9 -2.5 -14.5t-19.5 -5.5q-52 0 -151 -19q-25 -5 -40 -7q-34 -51 -126 -218q18 3 52 5q75 3 92 -48q9 -23 -20 -23q-73 0 -173 -26q-45 -86 -69 -139q75 20 136 24q76 3 94 -47q8 -22 -19 -22q-64 1 -215 -40q-37 -11 -53 12q-4 5 -12 20t-13 24z"></glyph><glyph glyph-name="ebreve" unicode="ĕ" d="M203 493q0 18 16 32q19 17 32 -5q20 -34 55 -34q28 0 56 32q21 23 32 -2q4 -10 -0.5 -26t-17.5 -30q-30 -32 -85 -32q-47 0 -71 25q-17 19 -17 40zM249 341q-8 6 -31 -10t-53.5 -53t-52.5 -82q11 -7 22 -7q34 0 76 57q22 30 34.5 59t4.5 36zM324 301q0 -51 -47 -108 t-108 -57q-37 0 -71 22q-9 -30 -9 -59q0 -34 13 -54.5t35 -20.5q94 0 184 136q9 12 17.5 12t14.5 -14q4 -4 1 -25.5t-15 -39.5q-32 -47 -87.5 -77.5t-112.5 -31.5q-68 -1 -106 38.5t-38 101.5q0 56 31 115q37 75 90.5 117t100.5 42q22 0 35 -8q43 -24 62 -52q10 -15 10 -37z "></glyph><glyph glyph-name="Edotaccent" unicode="Ė" d="M351 737q16 18 39 10.5t35 -33.5q8 -18 8 -31q0 -23 -16 -41q-13 -15 -36 -11.5t-37 26.5q-11 21 -11 38q0 22 18 42zM-24 38q-10 16 4 54q33 87 97 208t127 220q-32 21 -40 50q-2 10 4.5 15t18.5 5q72 0 156 14q68 10 88 10q64 1 84 -52q3 -9 -2.5 -14.5t-19.5 -5.5 q-52 0 -151 -19q-25 -5 -40 -7q-34 -51 -126 -218q18 3 52 5q75 3 92 -48q9 -23 -20 -23q-73 0 -173 -26q-45 -86 -69 -139q75 20 136 24q76 3 94 -47q8 -22 -19 -22q-64 1 -215 -40q-37 -11 -53 12q-4 5 -12 20t-13 24z"></glyph><glyph glyph-name="edotaccent" unicode="ė" d="M257 526q16 18 39 10.5t35 -33.5q8 -18 8 -31q0 -23 -16 -41q-13 -15 -36 -11.5t-37 26.5q-11 21 -11 38q0 22 18 42zM249 341q-8 6 -31 -10t-53.5 -53t-52.5 -82q11 -7 22 -7q34 0 76 57q22 30 34.5 59t4.5 36zM324 301q0 -51 -47 -108t-108 -57q-37 0 -71 22 q-9 -30 -9 -59q0 -34 13 -54.5t35 -20.5q94 0 184 136q9 12 17.5 12t14.5 -14q4 -4 1 -25.5t-15 -39.5q-32 -47 -87.5 -77.5t-112.5 -31.5q-68 -1 -106 38.5t-38 101.5q0 56 31 115q37 75 90.5 117t100.5 42q22 0 35 -8q43 -24 62 -52q10 -15 10 -37z"></glyph><glyph glyph-name="Eogonek" unicode="Ę" d="M152 -203q-51 0 -81.5 26t-29.5 58q0 54 101 123l-88 -22q-37 -11 -53 12q-4 5 -12 20t-13 24q-10 16 4 54q33 87 97 208t127 220q-32 21 -40 50q-2 10 4.5 15t18.5 5q72 0 156 14q68 10 88 10q64 1 84 -52q3 -9 -2.5 -14.5t-19.5 -5.5q-52 0 -151 -19q-25 -5 -40 -7 q-34 -51 -126 -218q18 3 52 5q75 3 92 -48q9 -23 -20 -23q-73 0 -173 -26q-45 -86 -69 -139q75 20 136 24q76 3 94 -47q4 -12 -3 -18q-1 -1 -13 -10t-19.5 -15l-22.5 -18t-25.5 -21.5t-24.5 -22t-23.5 -23t-18.5 -21t-13.5 -19.5t-4.5 -15q0 -22 25 -22q46 0 147 85 q7 5 15 5q19 0 19 -17q0 -40 -58.5 -77.5t-115.5 -37.5z"></glyph><glyph glyph-name="eogonek" unicode="ę" d="M249 341q-8 6 -31 -10t-53.5 -53t-52.5 -82q11 -7 22 -7q34 0 76 57q22 30 34.5 59t4.5 36zM302 -100q0 -32 -58 -69t-113 -37q-51 0 -80 25t-29 63q0 57 84 104q-53 9 -82 46.5t-29 91.5q0 56 31 115q37 75 90.5 117t100.5 42q22 0 35 -8q43 -24 62 -52q10 -15 10 -37 q0 -51 -47 -108t-108 -57q-37 0 -71 22q-9 -30 -9 -59q0 -34 13 -54.5t35 -20.5q94 0 184 136q9 12 17.5 12t14.5 -14q4 -4 1 -25.5t-15 -39.5q-28 -42 -94 -81q-145 -90 -145 -150q0 -10 7.5 -18.5t21.5 -8.5q31 0 70.5 23.5t71.5 60.5q10 11 14 11q5 0 11 -9t6 -21z"></glyph><glyph glyph-name="Ecaron" unicode="Ě" d="M293 740q34 7 61 -21q10 -12 14 -17q34 22 51 30q34 17 58 9q12 -4 13.5 -10.5t-6.5 -12.5q-123 -88 -142 -88q-14 0 -24 18q-4 7 -18.5 33.5t-19.5 34.5q-12 18 13 24zM-24 38q-10 16 4 54q33 87 97 208t127 220q-32 21 -40 50q-2 10 4.5 15t18.5 5q72 0 156 14 q68 10 88 10q64 1 84 -52q3 -9 -2.5 -14.5t-19.5 -5.5q-52 0 -151 -19q-25 -5 -40 -7q-34 -51 -126 -218q18 3 52 5q75 3 92 -48q9 -23 -20 -23q-73 0 -173 -26q-45 -86 -69 -139q75 20 136 24q76 3 94 -47q8 -22 -19 -22q-64 1 -215 -40q-37 -11 -53 12q-4 5 -12 20t-13 24 z"></glyph><glyph glyph-name="ecaron" unicode="ě" d="M219 529q34 7 61 -21q10 -12 14 -17q34 22 51 30q34 17 58 9q12 -4 13.5 -10.5t-6.5 -12.5q-123 -88 -142 -88q-14 0 -24 18q-4 7 -18.5 33.5t-19.5 34.5q-12 18 13 24zM249 341q-8 6 -31 -10t-53.5 -53t-52.5 -82q11 -7 22 -7q34 0 76 57q22 30 34.5 59t4.5 36zM324 301 q0 -51 -47 -108t-108 -57q-37 0 -71 22q-9 -30 -9 -59q0 -34 13 -54.5t35 -20.5q94 0 184 136q9 12 17.5 12t14.5 -14q4 -4 1 -25.5t-15 -39.5q-32 -47 -87.5 -77.5t-112.5 -31.5q-68 -1 -106 38.5t-38 101.5q0 56 31 115q37 75 90.5 117t100.5 42q22 0 35 -8q43 -24 62 -52 q10 -15 10 -37z"></glyph><glyph glyph-name="Gcircumflex" unicode="Ĝ" d="M471 672l-50 -29q-26 -15 -57 -10q-13 3 -14.5 10.5t8.5 14.5q98 71 115 81q7 5 16 5q23 0 32 -17q5 -9 19.5 -34.5t19.5 -34.5q9 -17 -12 -23q-34 -9 -62 19q-9 9 -15 18zM496 214q6 -11 2 -17.5t-23 -5.5q-26 2 -56 -1q13 -62 -44.5 -122t-107.5 -74q-40 -11 -74 -11 q-59 0 -100 32q-70 50 -70 156q0 76 33 152.5t82.5 134t103 98.5t97.5 56q35 12 73 12q41 0 68 -19q32 -24 46.5 -54t14.5 -55q0 -24 -13 -54q-23 -54 -38 -94q-11 -28 -36 -8q-36 28 -36 66q0 19 9 43q23 59 28 78.5t-1 32.5q-15 15 -61.5 -5t-106 -72t-101.5 -116 q-72 -110 -72 -230q0 -103 57 -103q41 0 88.5 39t82.5 104q-33 -6 -70 -10q-37 -3 -65 11.5t-40 38.5q-10 25 19 25q43 1 117 15q75 11 95 11q75 1 99 -54z"></glyph><glyph glyph-name="gcircumflex" unicode="ĝ" d="M313 459l-50 -29q-26 -15 -57 -10q-13 3 -14.5 10.5t8.5 14.5q98 71 115 81q7 5 16 5q23 0 32 -17q5 -9 19.5 -34.5t19.5 -34.5q9 -17 -12 -23q-34 -9 -62 19q-9 9 -15 18zM435 151q0 -31 -19 -60q-50 -78 -189 -129q-113 -275 -207 -319q-41 -15 -70 23q-29 44 -29 78 q0 67 63.5 135t155.5 100l13 33q-37 -25 -75 -25q-42 0 -66 27.5t-24 73.5q0 68 46.5 141.5t109 120t111.5 46.5q48 0 64 -42q1 2 4 7.5t6 10.5l6 10q9 17 21.5 18t21.5 -11q16 -20 16 -51q0 -32 -36 -104q-89 -176 -105 -212q97 60 151 134q6 8 13.5 11t12.5 -1t5 -15z M90 29q23 -1 56 37.5t72 106.5q57 99 57 143q0 18 -10 18q-18 0 -62.5 -43t-85 -110t-40.5 -120q0 -32 13 -32zM111 -87q-58 -42 -94 -101q-21 -36 -30.5 -67t-1.5 -38q7 -5 24.5 15.5t40.5 61.5q36 63 61 129z"></glyph><glyph glyph-name="Gbreve" unicode="Ğ" d="M393 704q0 18 16 32q19 17 32 -5q20 -34 55 -34q28 0 56 32q21 23 32 -2q4 -10 -0.5 -26t-17.5 -30q-30 -32 -85 -32q-47 0 -71 25q-17 19 -17 40zM496 214q6 -11 2 -17.5t-23 -5.5q-26 2 -56 -1q13 -62 -44.5 -122t-107.5 -74q-40 -11 -74 -11q-59 0 -100 32 q-70 50 -70 156q0 76 33 152.5t82.5 134t103 98.5t97.5 56q35 12 73 12q41 0 68 -19q32 -24 46.5 -54t14.5 -55q0 -24 -13 -54q-23 -54 -38 -94q-11 -28 -36 -8q-36 28 -36 66q0 19 9 43q23 59 28 78.5t-1 32.5q-15 15 -61.5 -5t-106 -72t-101.5 -116q-72 -110 -72 -230 q0 -103 57 -103q41 0 88.5 39t82.5 104q-33 -6 -70 -10q-37 -3 -65 11.5t-40 38.5q-10 25 19 25q43 1 117 15q75 11 95 11q75 1 99 -54z"></glyph><glyph glyph-name="gbreve" unicode="ğ" d="M213 493q0 18 16 32q19 17 32 -5q20 -34 55 -34q28 0 56 32q21 23 32 -2q4 -10 -0.5 -26t-17.5 -30q-30 -32 -85 -32q-47 0 -71 25q-17 19 -17 40zM435 151q0 -31 -19 -60q-50 -78 -189 -129q-113 -275 -207 -319q-41 -15 -70 23q-29 44 -29 78q0 67 63.5 135t155.5 100 l13 33q-37 -25 -75 -25q-42 0 -66 27.5t-24 73.5q0 68 46.5 141.5t109 120t111.5 46.5q48 0 64 -42q1 2 4 7.5t6 10.5l6 10q9 17 21.5 18t21.5 -11q16 -20 16 -51q0 -32 -36 -104q-89 -176 -105 -212q97 60 151 134q6 8 13.5 11t12.5 -1t5 -15zM90 29q23 -1 56 37.5 t72 106.5q57 99 57 143q0 18 -10 18q-18 0 -62.5 -43t-85 -110t-40.5 -120q0 -32 13 -32zM111 -87q-58 -42 -94 -101q-21 -36 -30.5 -67t-1.5 -38q7 -5 24.5 15.5t40.5 61.5q36 63 61 129z"></glyph><glyph glyph-name="Gdotaccent" unicode="Ġ" d="M467 737q16 18 39 10.5t35 -33.5q8 -18 8 -31q0 -23 -16 -41q-13 -15 -36 -11.5t-37 26.5q-11 21 -11 38q0 22 18 42zM496 214q6 -11 2 -17.5t-23 -5.5q-26 2 -56 -1q13 -62 -44.5 -122t-107.5 -74q-40 -11 -74 -11q-59 0 -100 32q-70 50 -70 156q0 76 33 152.5t82.5 134 t103 98.5t97.5 56q35 12 73 12q41 0 68 -19q32 -24 46.5 -54t14.5 -55q0 -24 -13 -54q-23 -54 -38 -94q-11 -28 -36 -8q-36 28 -36 66q0 19 9 43q23 59 28 78.5t-1 32.5q-15 15 -61.5 -5t-106 -72t-101.5 -116q-72 -110 -72 -230q0 -103 57 -103q41 0 88.5 39t82.5 104 q-33 -6 -70 -10q-37 -3 -65 11.5t-40 38.5q-10 25 19 25q43 1 117 15q75 11 95 11q75 1 99 -54z"></glyph><glyph glyph-name="gdotaccent" unicode="ġ" d="M297 526q16 18 39 10.5t35 -33.5q8 -18 8 -31q0 -23 -16 -41q-13 -15 -36 -11.5t-37 26.5q-11 21 -11 38q0 22 18 42zM435 151q0 -31 -19 -60q-50 -78 -189 -129q-113 -275 -207 -319q-41 -15 -70 23q-29 44 -29 78q0 67 63.5 135t155.5 100l13 33q-37 -25 -75 -25 q-42 0 -66 27.5t-24 73.5q0 68 46.5 141.5t109 120t111.5 46.5q48 0 64 -42q1 2 4 7.5t6 10.5l6 10q9 17 21.5 18t21.5 -11q16 -20 16 -51q0 -32 -36 -104q-89 -176 -105 -212q97 60 151 134q6 8 13.5 11t12.5 -1t5 -15zM90 29q23 -1 56 37.5t72 106.5q57 99 57 143 q0 18 -10 18q-18 0 -62.5 -43t-85 -110t-40.5 -120q0 -32 13 -32zM111 -87q-58 -42 -94 -101q-21 -36 -30.5 -67t-1.5 -38q7 -5 24.5 15.5t40.5 61.5q36 63 61 129z"></glyph><glyph glyph-name="uni0122" unicode="Ģ" d="M496 214q6 -11 2 -17.5t-23 -5.5q-26 2 -56 -1q13 -62 -44.5 -122t-107.5 -74q-40 -11 -74 -11q-59 0 -100 32q-70 50 -70 156q0 76 33 152.5t82.5 134t103 98.5t97.5 56q35 12 73 12q41 0 68 -19q32 -24 46.5 -54t14.5 -55q0 -24 -13 -54q-23 -54 -38 -94 q-11 -28 -36 -8q-36 28 -36 66q0 19 9 43q23 59 28 78.5t-1 32.5q-15 15 -61.5 -5t-106 -72t-101.5 -116q-72 -110 -72 -230q0 -103 57 -103q41 0 88.5 39t82.5 104q-33 -6 -70 -10q-37 -3 -65 11.5t-40 38.5q-10 25 19 25q43 1 117 15q75 11 95 11q75 1 99 -54zM64 -190 q-10 5 -9 13t9 11q12 4 19 10q-16 13 -16 37q0 27 19.5 44t43.5 17q17 0 28.5 -14t12.5 -36q0 -29 -26 -57t-57 -29q-13 0 -24 4z"></glyph><glyph glyph-name="uni0123" unicode="ģ" d="M337 549q30 0 30 -16q0 -9 -8 -12q-11 -4 -19 -9q21 -19 15 -47q-6 -23 -24.5 -37.5t-38.5 -13.5q-22 2 -33.5 23.5t-1.5 50.5q8 26 31.5 43.5t48.5 17.5zM435 151q0 -31 -19 -60q-50 -78 -189 -129q-113 -275 -207 -319q-41 -15 -70 23q-29 44 -29 78q0 67 63.5 135 t155.5 100l13 33q-37 -25 -75 -25q-42 0 -66 27.5t-24 73.5q0 68 46.5 141.5t109 120t111.5 46.5q48 0 64 -42q1 2 4 7.5t6 10.5l6 10q9 17 21.5 18t21.5 -11q16 -20 16 -51q0 -32 -36 -104q-89 -176 -105 -212q97 60 151 134q6 8 13.5 11t12.5 -1t5 -15zM90 29 q23 -1 56 37.5t72 106.5q57 99 57 143q0 18 -10 18q-18 0 -62.5 -43t-85 -110t-40.5 -120q0 -32 13 -32zM111 -87q-58 -42 -94 -101q-21 -36 -30.5 -67t-1.5 -38q7 -5 24.5 15.5t40.5 61.5q36 63 61 129z"></glyph><glyph glyph-name="Hcircumflex" unicode="Ĥ" d="M465 672l-50 -29q-26 -15 -57 -10q-13 3 -14.5 10.5t8.5 14.5q98 71 115 81q7 5 16 5q23 0 32 -17q5 -9 19.5 -34.5t19.5 -34.5q9 -17 -12 -23q-34 -9 -62 19q-9 9 -15 18zM561 460q-88 -156 -107 -191q29 -15 36 -44q2 -10 -3.5 -15t-19.5 -3q-23 3 -46 3 q-53 -103 -98 -204q-6 -13 -16 -14.5t-19 11.5q-17 26 -17 51q0 23 13 62q16 45 36 85q-17 -2 -58 -8t-67 -9t-46 -3q-29 -60 -87 -188q-5 -13 -16.5 -15t-20.5 10q-17 23 -17 52q0 35 52 158q-22 12 -32 30q-8 14 -2.5 19.5t25.5 4.5q7 0 16.5 -1.5t15.5 -1.5 q47 97 105.5 203.5t89.5 151.5q24 31 42 -1q9 -17 9 -41q0 -50 -33 -111l-107 -195q23 3 80.5 13.5t88.5 13.5q50 99 105.5 196.5t84.5 136.5q27 34 43 -2q9 -20 9 -38q0 -49 -39 -116z"></glyph><glyph glyph-name="hcircumflex" unicode="ĥ" d="M329 692l-50 -29q-26 -15 -57 -10q-13 3 -14.5 10.5t8.5 14.5q98 71 115 81q7 5 16 5q23 0 32 -17q5 -9 19.5 -34.5t19.5 -34.5q9 -17 -12 -23q-34 -9 -62 19q-9 9 -15 18zM405 92q-23 -45 -67 -76.5t-91 -31.5q-96 0 -96 85q0 74 87 209q31 55 27 57q-6 0 -32 -18.5 t-63.5 -55t-61.5 -75.5q-59 -97 -94 -185q-6 -14 -16 -15.5t-19 9.5q-15 18 -18 37t13 72q30 78 143.5 271.5t175.5 272.5q24 31 40 -4q8 -18 8 -38q0 -43 -36 -106q-45 -74 -92 -140q46 34 84 34q22 0 40 -20.5t18 -49.5q0 -23 -11 -42q-86 -154 -91 -164q-13 -32 -13 -59 q0 -34 19 -34q25 0 59 40.5t59 91.5q5 12 15 12t16 -12q13 -32 -3 -65z"></glyph><glyph glyph-name="Hbar" unicode="Ħ" d="M189 256q23 3 80.5 13.5t88.5 13.5q45 87 67 128q-22 -3 -77 -12t-87 -12zM62 -7q-5 -13 -16.5 -15t-20.5 10q-17 23 -17 52q0 35 52 158q-22 12 -32 30q-8 14 -2.5 19.5t25.5 4.5q7 0 16.5 -1.5t15.5 -1.5q36 74 69 137q-50 7 -57 47q-2 9 4 14.5t18 5.5q25 0 73 2 q58 106 88 149q24 31 42 -1q9 -17 9 -41q0 -43 -25 -94q17 2 75 12t91 12q56 95 78 124q27 34 43 -2q9 -20 9 -38q0 -39 -24 -87q36 -10 42 -44q2 -10 -3.5 -15.5t-20.5 -4.5q-9 1 -52 1q-57 -102 -88 -157q29 -15 36 -44q2 -10 -3.5 -15t-19.5 -3q-23 3 -46 3 q-53 -103 -98 -204q-6 -13 -16 -14.5t-19 11.5q-17 26 -17 51q0 23 13 62q16 45 36 85q-17 -2 -58 -8t-67 -9t-46 -3q-29 -60 -87 -188z"></glyph><glyph glyph-name="hbar" unicode="ħ" d="M407 98q-23 -45 -67 -76.5t-91 -31.5q-96 0 -96 85q0 74 87 209q31 55 27 57q-6 0 -32 -18.5t-63.5 -55t-61.5 -75.5q-59 -97 -94 -185q-6 -14 -16 -15.5t-19 9.5q-15 18 -18 37t13 72q38 100 182 336q-43 10 -55 54q-2 8 4.5 14.5t16.5 6.5q25 -1 81 1q55 87 90 132 q24 31 40 -4q8 -18 8 -38q0 -36 -25 -86q46 -8 59 -53q2 -11 -3 -16.5t-19 -4.5q-36 4 -84 -2l-56 -84q46 34 84 34q22 0 40 -20.5t18 -49.5q0 -23 -11 -42q-86 -154 -91 -164q-13 -32 -13 -59q0 -34 19 -34q25 0 59 40.5t59 91.5q5 12 15 12t16 -12q13 -32 -3 -65z"></glyph><glyph glyph-name="Itilde" unicode="Ĩ" d="M203 665q-14 -4 -19.5 0.5t-1.5 16.5q6 14 25.5 26.5t44.5 12.5q24 0 58 -14q41 -15 56 -15q12 0 24 4q18 5 24.5 0t-1.5 -20q-19 -37 -71 -37q-22 0 -69 15q-36 14 -54 14q-9 0 -16 -3zM-11 111q38 100 123 258.5t145 244.5q24 34 42 -1q9 -18 9 -40q0 -47 -38 -116 q-175 -310 -241 -457q-12 -29 -34 -4q-18 18 -18 53q0 26 12 62z"></glyph><glyph glyph-name="itilde" unicode="ĩ" d="M91 428q-16 -8 -23 -3.5t-2 17.5q7 18 30 35t50 17q16 0 44 -6.5t41 -6.5q16 0 37 9q15 7 22.5 2.5t1.5 -19.5q-22 -50 -83 -50q-17 0 -47.5 6t-42.5 6q-15 0 -28 -7zM227 90q-22 -46 -67.5 -75.5t-90.5 -29.5q-44 0 -66 23t-22 62q0 27 12 66q18 50 57 123.5t69 114.5 q21 28 40 7q16 -17 17.5 -45.5t-16.5 -67.5q-9 -21 -41 -79.5t-41 -78.5q-14 -36 -14 -60q0 -25 15 -25q28 0 63 40t60 95q6 13 14.5 12.5t15.5 -14.5q15 -28 -5 -68z"></glyph><glyph glyph-name="Imacron" unicode="Ī" d="M299 647q-50 -4 -62 -4q-51 0 -56 42q-2 10 2.5 14.5t16.5 3.5q7 -1 86 3q56 4 77 4q50 0 56 -43q2 -10 -3.5 -15t-19.5 -1q-18 5 -97 -4zM-11 111q38 100 123 258.5t145 244.5q24 34 42 -1q9 -18 9 -40q0 -47 -38 -116q-175 -310 -241 -457q-12 -29 -34 -4 q-18 18 -18 53q0 26 12 62z"></glyph><glyph glyph-name="imacron" unicode="ī" d="M169 426q-50 -4 -62 -4q-51 0 -56 42q-2 10 2.5 14.5t16.5 3.5q7 -1 86 3q56 4 77 4q50 0 56 -43q2 -10 -3.5 -15t-19.5 -1q-18 5 -97 -4zM227 90q-22 -46 -67.5 -75.5t-90.5 -29.5q-44 0 -66 23t-22 62q0 27 12 66q18 50 57 123.5t69 114.5q21 28 40 7 q16 -17 17.5 -45.5t-16.5 -67.5q-9 -21 -41 -79.5t-41 -78.5q-14 -36 -14 -60q0 -25 15 -25q28 0 63 40t60 95q6 13 14.5 12.5t15.5 -14.5q15 -28 -5 -68z"></glyph><glyph glyph-name="Ibreve" unicode="Ĭ" d="M244 704q0 18 16 32q19 17 32 -5q20 -34 55 -34q28 0 56 32q21 23 32 -2q4 -10 -0.5 -26t-17.5 -30q-30 -32 -85 -32q-47 0 -71 25q-17 19 -17 40zM-11 111q38 100 123 258.5t145 244.5q24 34 42 -1q9 -18 9 -40q0 -47 -38 -116q-175 -310 -241 -457q-12 -29 -34 -4 q-18 18 -18 53q0 26 12 62z"></glyph><glyph glyph-name="ibreve" unicode="ĭ" d="M123 493q0 18 16 32q19 17 32 -5q20 -34 55 -34q28 0 56 32q21 23 32 -2q4 -10 -0.5 -26t-17.5 -30q-30 -32 -85 -32q-47 0 -71 25q-17 19 -17 40zM227 90q-22 -46 -67.5 -75.5t-90.5 -29.5q-44 0 -66 23t-22 62q0 27 12 66q18 50 57 123.5t69 114.5q21 28 40 7 q16 -17 17.5 -45.5t-16.5 -67.5q-9 -21 -41 -79.5t-41 -78.5q-14 -36 -14 -60q0 -25 15 -25q28 0 63 40t60 95q6 13 14.5 12.5t15.5 -14.5q15 -28 -5 -68z"></glyph></font>
</defs>
</svg>
